<?xml version="1.0" standalone="no"?>
<!DOCTYPE svg PUBLIC "-//W3C//DTD SVG 1.1//EN" "http://www.w3.org/Graphics/SVG/1.1/DTD/svg11.dtd" >
<svg xmlns="http://www.w3.org/2000/svg" xmlns:xlink="http://www.w3.org/1999/xlink" version="1.1">
<metadata>
Created by FontForge 20170731 at Mon Apr  4 15:24:52 2016
 By Aleksey,,,
Copyright 2010 The Amirim Project Authors, with Reserved Font Name 'Source'. Source is a trademark of Adobe Systems Incorporated in the United States and/or other countries.
</metadata>
<defs>
<font id="Assistant-Bold" horiz-adv-x="523" >
  <font-face 
    font-family="Assistant"
    font-weight="700"
    font-stretch="normal"
    units-per-em="1000"
    panose-1="0 0 8 0 0 0 0 0 0 0"
    ascent="800"
    descent="-200"
    x-height="495"
    cap-height="653"
    bbox="-457 -277 1191 1021"
    underline-thickness="50"
    underline-position="-150"
    unicode-range="U+0020-FB4B"
  />
<missing-glyph horiz-adv-x="684" 
d="M81 660h522v-660h-522v660zM344 410l44 95l37 69h-166l37 -69l44 -95h4zM275 340l-100 194v-386zM509 534l-99 -194l99 -192v386zM431 86l-44 86l-43 99h-4l-43 -99l-45 -86h179z" />
    <glyph glyph-name="fi" unicode="fi" horiz-adv-x="605" 
d="M228 532v-37h91v-108h-91v-387h-137v387h-66v102l66 5v35q0 84 42.5 135t133.5 51q52 0 96 -18l-25 -101q-27 11 -52 11q-58 0 -58 -75zM401 495h136v-495h-136v495zM413.5 592.5q-21.5 20.5 -21.5 52.5t21.5 52.5t55.5 20.5t55.5 -20.5t21.5 -52.5t-21.5 -52.5
t-55.5 -20.5t-55.5 20.5z" />
    <glyph glyph-name="fl" unicode="fl" horiz-adv-x="614" 
d="M228 532v-37h91v-108h-91v-387h-137v387h-66v102l66 5v35q0 84 42.5 135t133.5 51q52 0 96 -18l-25 -101q-27 11 -52 11q-58 0 -58 -75zM431 29q-30 41 -30 116v558h136v-564q0 -21 8 -30.5t18 -9.5t18 2l17 -102q-29 -11 -70 -11q-67 0 -97 41z" />
    <glyph glyph-name=".notdef" horiz-adv-x="684" 
d="M81 660h522v-660h-522v660zM344 410l44 95l37 69h-166l37 -69l44 -95h4zM275 340l-100 194v-386zM509 534l-99 -194l99 -192v386zM431 86l-44 86l-43 99h-4l-43 -99l-45 -86h179z" />
    <glyph glyph-name=".null" horiz-adv-x="0" 
 />
    <glyph glyph-name="nonmarkingreturn" horiz-adv-x="333" 
 />
    <glyph glyph-name="space" unicode=" " horiz-adv-x="200" 
 />
    <glyph glyph-name="exclam" unicode="!" horiz-adv-x="332" 
d="M102 544l-4 126h137l-5 -126l-19 -318h-90zM106 13q-24 25 -24 63t24 63t60 25t60 -25t24 -63t-24 -63t-60 -25t-60 25z" />
    <glyph glyph-name="quotedbl" unicode="&#x22;" horiz-adv-x="519" 
d="M81 561l-4 126h138l-4 -126l-27 -194h-76zM308 561l-4 126h138l-4 -126l-27 -194h-76z" />
    <glyph glyph-name="numbersign" unicode="#" 
d="M110 190h-75v88h85l14 116h-79v88h90l22 168h79l-20 -168h108l21 168h79l-20 -168h79v-88h-90l-14 -116h84v-88h-94l-23 -190h-81l23 190h-108l-23 -190h-80zM308 278l15 116h-108l-15 -116h108z" />
    <glyph glyph-name="dollar" unicode="$" 
d="M422.5 59.5q-40.5 -50.5 -114.5 -65.5v-104h-92v100q-47 6 -94 25.5t-81 50.5l60 93q39 -30 74 -45t71 -15q86 0 86 74q0 33 -26.5 54.5t-82.5 50.5q-50 26 -81.5 47t-53.5 55t-22 81q0 72 40 120t110 62v103h92v-101q83 -12 147 -81l-69 -78q-29 26 -54.5 38.5
t-56.5 12.5q-78 0 -78 -69q0 -30 25 -49t77 -44q51 -25 84 -46.5t56.5 -57.5t23.5 -88q0 -73 -40.5 -123.5z" />
    <glyph glyph-name="percent" unicode="%" horiz-adv-x="845" 
d="M71.5 321.5q-44.5 55.5 -44.5 152.5q0 96 44.5 151t116.5 55q71 0 115.5 -55t44.5 -151t-44.5 -152t-115.5 -56q-72 0 -116.5 55.5zM559 665h80l-354 -677h-80zM234.5 374.5q17.5 31.5 17.5 99.5q0 67 -17.5 98t-46.5 31t-47 -31t-18 -98t18 -99t47 -32t46.5 31.5z
M541.5 44q-44.5 56 -44.5 152t44.5 151t115.5 55q72 0 116.5 -55t44.5 -151q0 -97 -44.5 -152.5t-116.5 -55.5q-71 0 -115.5 56zM704 97q18 32 18 99t-18 98t-47 31t-46.5 -31t-17.5 -98t17.5 -99t46.5 -32t47 32z" />
    <glyph glyph-name="ampersand" unicode="&#x26;" horiz-adv-x="658" 
d="M607 -12q-82 17 -164 68q-89 -68 -202 -68q-67 0 -116 25t-74 67.5t-25 93.5q0 62 32 105t89 79q-41 77 -41 139q0 46 21.5 84.5t61 61t91.5 22.5q71 0 113 -39.5t42 -105.5q0 -58 -36.5 -100.5t-102.5 -86.5q55 -68 137 -129q53 71 78 162h125q-39 -125 -110 -223
q66 -37 114 -44zM242 414q43 25 65.5 49.5t22.5 56.5q0 25 -12 39.5t-36 14.5q-27 0 -45 -21t-18 -56q0 -39 23 -83zM184.5 117.5q28.5 -24.5 73.5 -24.5q44 0 90 30q-81 66 -142 145q-24 -21 -37 -42t-13 -44q0 -40 28.5 -64.5z" />
    <glyph glyph-name="quotesingle" unicode="'" horiz-adv-x="292" 
d="M81 561l-4 126h138l-4 -126l-27 -194h-76z" />
    <glyph glyph-name="parenleft" unicode="(" horiz-adv-x="338" 
d="M107.5 39q-33.5 111 -33.5 239t33.5 239t98.5 218l85 -36q-54 -94 -80.5 -202t-26.5 -219t26.5 -219t80.5 -202l-85 -36q-65 107 -98.5 218z" />
    <glyph glyph-name="parenright" unicode=")" horiz-adv-x="338" 
d="M47 -143q54 94 80.5 202t26.5 219t-26.5 219t-80.5 202l85 36q65 -107 98.5 -218t33.5 -239t-33.5 -239t-98.5 -218z" />
    <glyph glyph-name="asterisk" unicode="*" horiz-adv-x="451" 
d="M89 403l58 101l-106 48l22 68l114 -24l12 116h73l12 -117l113 25l23 -68l-107 -48l59 -101l-58 -43l-78 89l-79 -89z" />
    <glyph glyph-name="plus" unicode="+" 
d="M211 282h-177v97h177v186h101v-186h177v-97h-177v-186h-101v186z" />
    <glyph glyph-name="comma" unicode="," horiz-adv-x="292" 
d="M221.5 129q25.5 -35 25.5 -98q0 -80 -44.5 -138t-127.5 -84l-28 74q52 18 80 50.5t28 71.5h-8q-35 0 -59.5 21t-24.5 58q0 35 25 57.5t62 22.5q46 0 71.5 -35z" />
    <glyph glyph-name="hyphen" unicode="-" horiz-adv-x="329" 
d="M43 302h243v-98h-243v98z" />
    <glyph glyph-name="period" unicode="." horiz-adv-x="292" 
d="M86 13q-24 25 -24 63t24 63t60 25t60 -25t24 -63t-24 -63t-60 -25t-60 25z" />
    <glyph glyph-name="slash" unicode="/" horiz-adv-x="341" 
d="M225 710h90l-212 -870h-90z" />
    <glyph glyph-name="zero" unicode="0" 
d="M143.5 26.5q-50.5 38.5 -78 113.5t-27.5 181q0 158 60 242.5t164 84.5q103 0 163 -84.5t60 -242.5q0 -106 -27.5 -181t-77.5 -113.5t-118 -38.5t-118.5 38.5zM331 145.5q25 51.5 25 175.5q0 122 -25 171.5t-69 49.5q-45 0 -69.5 -49t-24.5 -172q0 -124 25 -175.5
t69 -51.5t69 51.5z" />
    <glyph glyph-name="one" unicode="1" horiz-adv-x="478" 
d="M40 111h140v384h-118v85q49 9 85 22t69 34h101v-525h121v-111h-398v111z" />
    <glyph glyph-name="two" unicode="2" 
d="M38 79q104 99 158.5 156t87.5 109t33 96q0 47 -25 73.5t-70 26.5q-32 0 -60 -18t-56 -48l-75 74q48 51 96.5 75.5t113.5 24.5q93 0 150 -54.5t57 -145.5q0 -74 -55 -153.5t-158 -186.5q58 7 107 7h137v-115h-441v79z" />
    <glyph glyph-name="three" unicode="3" 
d="M23 78l63 87q68 -66 143 -66q49 0 78.5 21.5t29.5 60.5q0 48 -38.5 72t-137.5 24v98q84 0 119.5 23.5t35.5 66.5q0 36 -22 55.5t-61 19.5q-34 0 -62.5 -14t-59.5 -43l-69 84q94 81 197 81q98 0 156 -45.5t58 -127.5q0 -98 -107 -142v-4q58 -17 93 -56.5t35 -99.5
q0 -57 -31 -99t-84 -64t-117 -22q-139 0 -219 90z" />
    <glyph glyph-name="four" unicode="4" 
d="M499 156h-76v-156h-127v156h-277v94l239 386h165v-376h76v-104zM296 260v117q0 42 5 139h-4q-10 -21 -43 -86l-9 -18l-94 -152h145z" />
    <glyph glyph-name="five" unicode="5" 
d="M23 77l62 87q69 -65 141 -65q51 0 81.5 28t30.5 79q0 49 -29 77t-76 28q-28 0 -47.5 -7t-49.5 -27l-62 40l18 319h354v-115h-236l-11 -131q39 17 75 17q87 0 144 -50.5t57 -147.5q0 -68 -31.5 -118t-84 -76.5t-114.5 -26.5q-133 0 -222 89z" />
    <glyph glyph-name="six" unicode="6" 
d="M435.5 346.5q51.5 -49.5 51.5 -146.5q0 -64 -28 -112t-75.5 -74t-104.5 -26q-64 0 -118 34t-86.5 104.5t-32.5 175.5q0 115 35 193t93 115.5t127 37.5q57 0 102 -21t78 -54l-72 -82q-18 20 -45.5 33t-54.5 13q-60 0 -97 -50t-41 -162q25 33 62 52t70 19q85 0 136.5 -49.5
zM338 119q24 28 24 81q0 50 -24 74.5t-65 24.5q-28 0 -54.5 -16t-47.5 -51q9 -74 37 -107.5t69 -33.5q37 0 61 28z" />
    <glyph glyph-name="seven" unicode="7" 
d="M208 282.5q37 115.5 126 238.5h-290v115h437v-84q-73 -88 -109.5 -166t-51 -163.5t-20.5 -222.5h-138q9 167 46 282.5z" />
    <glyph glyph-name="eight" unicode="8" 
d="M149 10.5q-50 22.5 -78.5 62t-28.5 90.5q0 99 110 158v4q-86 63 -86 149q0 79 56 126.5t144 47.5q86 0 138.5 -47.5t52.5 -126.5q0 -43 -24 -80t-60 -61v-4q51 -28 80.5 -67.5t29.5 -98.5q0 -49 -28 -89t-78.5 -63t-115.5 -23q-62 0 -112 22.5zM345 465q0 40 -22 63.5
t-60 23.5q-33 0 -54.5 -20.5t-21.5 -57.5q0 -38 28.5 -61.5t86.5 -46.5q43 48 43 99zM330 106q25 22 25 62q0 28 -17 48t-43.5 33.5t-79.5 35.5q-25 -21 -40 -49t-15 -58q0 -42 30 -68t74 -26q41 0 66 22z" />
    <glyph glyph-name="nine" unicode="9" 
d="M361 614q54 -34 86.5 -104.5t32.5 -175.5q0 -115 -35 -193t-93 -115.5t-127 -37.5q-57 0 -102 21t-78 54l72 82q17 -20 44.5 -33t55.5 -13q60 0 97 50t41 162q-25 -33 -62 -52t-70 -19q-85 0 -136.5 49.5t-51.5 146.5q0 64 28 112t75.5 74t104.5 26q64 0 118 -34z
M303.5 353q26.5 16 47.5 51q-9 74 -37 107.5t-69 33.5q-37 0 -61 -28t-24 -81q0 -51 23.5 -75t65.5 -24q28 0 54.5 16z" />
    <glyph glyph-name="colon" unicode=":" horiz-adv-x="292" 
d="M86 343q-24 25 -24 63t24 63t60 25t60 -25t24 -63t-24 -63t-60 -25t-60 25zM86 13q-24 25 -24 63t24 63t60 25t60 -25t24 -63t-24 -63t-60 -25t-60 25z" />
    <glyph glyph-name="semicolon" unicode=";" horiz-adv-x="292" 
d="M86 343q-24 25 -24 63t24 63t60 25t60 -25t24 -63t-24 -63t-60 -25t-60 25zM221.5 129q25.5 -35 25.5 -98q0 -80 -44.5 -138t-127.5 -84l-28 74q52 18 80 50.5t28 71.5h-8q-35 0 -59.5 21t-24.5 58q0 35 25 57.5t62 22.5q46 0 71.5 -35z" />
    <glyph glyph-name="less" unicode="&#x3c;" 
d="M34 284v96l455 176v-113l-181 -61l-135 -48v-4l135 -47l181 -61v-113z" />
    <glyph glyph-name="equal" unicode="=" 
d="M34 494h455v-97h-455v97zM34 264h455v-97h-455v97z" />
    <glyph glyph-name="greater" unicode="&#x3e;" 
d="M34 222l182 61l135 47v4l-135 48l-182 61v113l455 -176v-96l-455 -175v113z" />
    <glyph glyph-name="question" unicode="?" horiz-adv-x="457" 
d="M153 252q0 45 20 79.5t57 76.5q28 32 40.5 52.5t12.5 42.5q0 32 -19.5 50.5t-52.5 18.5q-27 0 -49.5 -12.5t-45.5 -35.5l-75 69q36 41 84 65t103 24q84 0 135 -43t51 -126q0 -40 -18 -70.5t-54 -71.5q-34 -38 -51 -66t-17 -64q0 -10 1 -15h-120q-2 18 -2 26zM155 13
q-24 25 -24 63t24 63t60 25t60 -25t24 -63t-24 -63t-60 -25t-60 25z" />
    <glyph glyph-name="at" unicode="@" horiz-adv-x="894" 
d="M236 -127q-85 42 -136 126.5t-51 205.5q0 135 60.5 240t162.5 163t223 58q105 0 184.5 -44.5t122.5 -124.5t43 -184q0 -86 -33 -148t-84.5 -93.5t-105.5 -31.5q-45 0 -76 20t-38 56h-2q-21 -29 -55 -48t-65 -19q-58 0 -94 40.5t-36 108.5q0 60 26.5 116.5t72.5 91.5
t101 35q53 0 77 -49h2l14 41h84l-44 -217q-5 -19 -5 -39q0 -52 52 -52q31 0 59 23t45.5 65.5t17.5 96.5q0 76 -29 137.5t-90.5 98t-154.5 36.5q-87 0 -166 -47t-127.5 -132t-48.5 -194q0 -95 39.5 -161.5t106 -100t147.5 -33.5q39 0 80 11t74 29l30 -75q-87 -48 -195 -48
q-103 0 -188 42zM448.5 147q16.5 11 36.5 36l25 139q-18 31 -50 31q-29 0 -52.5 -23t-36 -57t-12.5 -67q0 -35 15 -52.5t41 -17.5q17 0 33.5 11z" />
    <glyph glyph-name="A" unicode="A" horiz-adv-x="568" 
d="M384 163h-205l-44 -163h-140l208 653h163l207 -653h-145zM356 269l-18 67q-12 44 -36 138l-19 74h-4q-30 -129 -53 -212l-18 -67h148z" />
    <glyph glyph-name="B" unicode="B" horiz-adv-x="603" 
d="M79 653h219q238 0 238 -162q0 -46 -24 -86t-64 -55v-4q55 -14 88 -52.5t33 -101.5q0 -95 -70 -143.5t-183 -48.5h-237v653zM290 389q57 0 84.5 21.5t27.5 60.5q0 40 -27 58t-84 18h-75v-158h74zM304 106q131 0 131 95q0 45 -32.5 65.5t-98.5 20.5h-88v-181h88z" />
    <glyph glyph-name="C" unicode="C" horiz-adv-x="580" 
d="M195.5 27q-68.5 39 -108.5 114.5t-40 181.5q0 105 41 182.5t111 118.5t153 41q59 0 108.5 -23.5t85.5 -60.5l-73 -88q-27 26 -55.5 39.5t-62.5 13.5q-48 0 -86 -26.5t-59.5 -76t-21.5 -115.5q0 -103 44.5 -162t120.5 -59q75 0 131 63l73 -86q-82 -96 -209 -96
q-84 0 -152.5 39z" />
    <glyph glyph-name="D" unicode="D" horiz-adv-x="632" 
d="M79 653h181q154 0 239.5 -81t85.5 -243t-84.5 -245.5t-232.5 -83.5h-189v653zM252 111q192 0 192 218q0 113 -49.5 163t-142.5 50h-36v-431h36z" />
    <glyph glyph-name="E" unicode="E" horiz-adv-x="545" 
d="M79 653h404v-115h-267v-143h227v-115h-227v-165h277v-115h-414v653z" />
    <glyph glyph-name="F" unicode="F" horiz-adv-x="520" 
d="M79 653h406v-115h-269v-163h230v-115h-230v-260h-137v653z" />
    <glyph glyph-name="G" unicode="G" horiz-adv-x="635" 
d="M200.5 27q-71.5 39 -112.5 114.5t-41 181.5q0 105 42 182.5t113.5 118.5t159.5 41q119 0 203 -84l-72 -88q-28 26 -57.5 39.5t-68.5 13.5q-81 0 -130 -58.5t-49 -159.5q0 -106 48 -163.5t141 -57.5q22 0 43 6t34 16v122h-113v112h235v-296q-36 -35 -92 -57t-121 -22
q-91 0 -162.5 39z" />
    <glyph glyph-name="H" unicode="H" horiz-adv-x="670" 
d="M79 653h137v-255h238v255h137v-653h-137v278h-238v-278h-137v653z" />
    <glyph glyph-name="I" unicode="I" horiz-adv-x="295" 
d="M79 653h137v-653h-137v653z" />
    <glyph glyph-name="J" unicode="J" horiz-adv-x="504" 
d="M102 16.5q-50 28.5 -83 87.5l93 69q36 -66 95 -66q43 0 64 27t21 91v428h137v-440q0 -99 -52 -162t-153 -63q-72 0 -122 28.5z" />
    <glyph glyph-name="K" unicode="K" horiz-adv-x="609" 
d="M79 653h137v-277h4l207 277h151l-199 -259l234 -394h-150l-165 286l-82 -106v-180h-137v653z" />
    <glyph glyph-name="L" unicode="L" horiz-adv-x="513" 
d="M79 653h137v-538h262v-115h-399v653z" />
    <glyph glyph-name="M" unicode="M" horiz-adv-x="757" 
d="M79 653h151l109 -300q15 -43 26 -82l13 -41h4l18 57q16 54 21 66l106 300h151v-653h-125v259q0 55 13 178l4 39h-4l-53 -153l-97 -265h-78l-97 265l-52 153h-4l4 -39q13 -123 13 -178v-259h-123v653z" />
    <glyph glyph-name="N" unicode="N" horiz-adv-x="662" 
d="M79 653h141l181 -339l65 -142h4q-1 17 -5 53q-12 116 -12 180v248h130v-653h-140l-181 339l-66 142h-4q1 -12 5 -45q5 -46 9 -96.5t4 -89.5v-250h-131v653z" />
    <glyph glyph-name="O" unicode="O" horiz-adv-x="681" 
d="M187.5 29q-66.5 41 -103.5 118.5t-37 181.5q0 105 37 180.5t103.5 115.5t153.5 40t153.5 -40t103 -116t36.5 -180t-36.5 -181.5t-103 -118.5t-153.5 -41t-153.5 41zM452.5 167q41.5 60 41.5 162q0 101 -41.5 159t-111.5 58q-71 0 -112 -57.5t-41 -159.5t41.5 -162
t111.5 -60t111.5 60z" />
    <glyph glyph-name="P" unicode="P" horiz-adv-x="592" 
d="M79 653h218q118 0 187.5 -48.5t69.5 -158.5q0 -108 -71 -163t-182 -55h-85v-228h-137v653zM292 337q128 0 128 109q0 52 -32.5 75t-99.5 23h-72v-207h76z" />
    <glyph glyph-name="Q" unicode="Q" horiz-adv-x="681" 
d="M665 -159q-18 -9 -47.5 -14.5t-64.5 -5.5q-98 0 -169 47t-106 126q-106 21 -168.5 109.5t-62.5 225.5q0 105 37 180.5t103.5 115.5t153.5 40t153.5 -40t103 -116t36.5 -180q0 -131 -56.5 -217.5t-154.5 -113.5q21 -34 60 -50.5t86 -16.5q37 0 72 11zM229 161
q41 -61 112 -61q70 0 111.5 61t41.5 168q0 101 -41.5 159t-111.5 58q-71 0 -112 -57.5t-41 -159.5q0 -107 41 -168z" />
    <glyph glyph-name="R" unicode="R" horiz-adv-x="606" 
d="M433 0l-130 242h-87v-242h-137v653h230q114 0 181 -46.5t67 -153.5q0 -70 -32 -117.5t-89 -70.5l151 -265h-154zM216 351h81q62 0 94 25.5t32 76.5q0 49 -31 70t-95 21h-81v-193z" />
    <glyph glyph-name="S" unicode="S" horiz-adv-x="552" 
d="M147 12.5q-63 24.5 -111 70.5l79 94q36 -32 79.5 -51t84.5 -19q48 0 73.5 18.5t25.5 51.5q0 21 -11.5 35t-29 23t-56.5 25l-86 37q-58 24 -95 67.5t-37 109.5q0 53 29.5 96.5t81.5 69t117 25.5q57 0 112 -22.5t95 -62.5l-69 -87q-34 27 -67 40t-71 13q-41 0 -65 -17
t-24 -47q0 -21 12.5 -35t31 -23t57.5 -25l84 -34q63 -26 97 -68.5t34 -108.5q0 -55 -29 -100.5t-84 -72.5t-129 -27q-66 0 -129 24.5z" />
    <glyph glyph-name="T" unicode="T" horiz-adv-x="553" 
d="M208 538h-182v115h502v-115h-183v-538h-137v538z" />
    <glyph glyph-name="U" unicode="U" horiz-adv-x="662" 
d="M141.5 63q-65.5 75 -65.5 234v356h137v-369q0 -95 30 -136t89 -41q60 0 91 41t31 136v369h132v-356q0 -159 -64.5 -234t-189.5 -75t-190.5 75z" />
    <glyph glyph-name="V" unicode="V" horiz-adv-x="550" 
d="M-6 653h145l83 -312q15 -54 27 -105q32 -126 27 -106h4q5 18 34 131l20 80l82 312h140l-199 -653h-164z" />
    <glyph glyph-name="W" unicode="W" horiz-adv-x="809" 
d="M15 653h141l49 -313l28 -207h4l40 207l74 313h117l73 -313l23 -116l18 -91h4q19 147 28 207l49 313h131l-119 -653h-172l-69 312q-16 75 -27 151h-4l-8 -46q-12 -70 -20 -105l-67 -312h-169z" />
    <glyph glyph-name="X" unicode="X" horiz-adv-x="559" 
d="M194 336l-171 317h153l62 -131q9 -18 31 -66l17 -37h4q14 39 42 103l58 131h146l-171 -323l182 -330h-153l-69 140q-19 37 -50 107h-4q-12 -29 -46 -107l-67 -140h-146z" />
    <glyph glyph-name="Y" unicode="Y" horiz-adv-x="517" 
d="M190 236l-197 417h147l63 -156l54 -144h4q4 9 8 19t9 22q24 61 40 103l63 156h143l-197 -417v-236h-137v236z" />
    <glyph glyph-name="Z" unicode="Z" horiz-adv-x="541" 
d="M37 83l298 455h-270v115h439v-83l-298 -455h300v-115h-469v83z" />
    <glyph glyph-name="bracketleft" unicode="[" horiz-adv-x="338" 
d="M88 708h206v-73h-104v-714h104v-73h-206v860z" />
    <glyph glyph-name="backslash" unicode="\" horiz-adv-x="341" 
d="M26 710h90l212 -870h-90z" />
    <glyph glyph-name="bracketright" unicode="]" horiz-adv-x="338" 
d="M44 -79h104v714h-104v73h206v-860h-206v73z" />
    <glyph glyph-name="asciicircum" unicode="^" 
d="M206 670h111l155 -394h-113l-49 136l-46 135h-4l-46 -135l-49 -136h-113z" />
    <glyph glyph-name="underscore" unicode="_" horiz-adv-x="500" 
d="M12 -60h476v-78h-476v78z" />
    <glyph glyph-name="grave" unicode="`" horiz-adv-x="553" 
d="M93 729l93 90l152 -179l-68 -67z" />
    <glyph glyph-name="a" unicode="a" horiz-adv-x="524" 
d="M84.5 30q-40.5 42 -40.5 106q0 79 67 122.5t215 59.5q-3 80 -82 80q-31 0 -63 -12t-70 -34l-49 90q105 65 208 65q95 0 144 -55.5t49 -165.5v-286h-112l-10 52h-3q-74 -64 -147 -64q-66 0 -106.5 42zM281.5 105.5q20.5 11.5 44.5 34.5v95q-81 -11 -116 -33t-35 -55
q0 -26 16 -39.5t45 -13.5q25 0 45.5 11.5z" />
    <glyph glyph-name="b" unicode="b" horiz-adv-x="570" 
d="M253.5 4.5q-33.5 16.5 -63.5 48.5h-4l-11 -53h-107v703h136v-175l-3 -78q30 26 64.5 41.5t69.5 15.5q90 0 142.5 -68t52.5 -183q0 -82 -29 -143t-77 -93t-103 -32q-34 0 -67.5 16.5zM362 139q28 39 28 115q0 141 -93 141q-46 0 -93 -48v-212q39 -35 86 -35q44 0 72 39z
" />
    <glyph glyph-name="c" unicode="c" horiz-adv-x="466" 
d="M156 19q-55 31 -86.5 89.5t-31.5 138.5t34.5 139t92.5 90t127 31q81 0 145 -54l-65 -88q-19 16 -36 23.5t-36 7.5q-55 0 -88.5 -40.5t-33.5 -108.5q0 -67 32.5 -107.5t84.5 -40.5q45 0 94 38l54 -89q-35 -30 -77.5 -45t-85.5 -15q-69 0 -124 31z" />
    <glyph glyph-name="d" unicode="d" horiz-adv-x="570" 
d="M95.5 57q-54.5 69 -54.5 190q0 78 29 137t76.5 91t100.5 32q39 0 67 -13t57 -40l-5 77v172h137v-703h-112l-10 51h-3q-28 -28 -63.5 -45.5t-71.5 -17.5q-93 0 -147.5 69zM325 111.5q21 11.5 41 36.5v212q-38 35 -88 35q-41 0 -69 -38t-28 -108q0 -74 25 -111.5t72 -37.5
q26 0 47 11.5z" />
    <glyph glyph-name="e" unicode="e" horiz-adv-x="514" 
d="M472 208h-306q10 -59 48.5 -87t89.5 -28q53 0 110 33l45 -83q-37 -26 -82.5 -40.5t-90.5 -14.5q-70 0 -126.5 31t-89 90t-32.5 138q0 78 32.5 137t85.5 91t113 32q101 0 155 -65.5t54 -171.5q0 -38 -6 -62zM361 299q0 48 -22 75.5t-67 27.5q-37 0 -65.5 -25.5
t-38.5 -77.5h193z" />
    <glyph glyph-name="f" unicode="f" horiz-adv-x="333" 
d="M228 532v-37h91v-108h-91v-387h-137v387h-66v102l66 5v35q0 84 42.5 135t133.5 51q52 0 96 -18l-25 -101q-27 11 -52 11q-58 0 -58 -75z" />
    <glyph glyph-name="g" unicode="g" horiz-adv-x="530" 
d="M93.5 -181q-57.5 32 -57.5 94t71 102v4q-45 29 -45 84q0 26 15.5 51t39.5 41v4q-29 20 -47.5 54t-18.5 75q0 56 27.5 96.5t73.5 61.5t100 21q38 0 76 -12h179v-100h-83q9 -12 15 -31.5t6 -39.5q0 -81 -54 -124t-139 -43q-31 0 -62 10q-10 -9 -15 -17.5t-5 -22.5
q0 -19 17.5 -29t58.5 -10h83q92 0 139 -30t47 -95q0 -50 -33.5 -90.5t-95 -63t-143.5 -22.5q-92 0 -149.5 32zM305.5 263q20.5 23 20.5 65q0 41 -20.5 63.5t-53.5 22.5t-53 -22.5t-20 -63.5t20.5 -64.5t52.5 -23.5q33 0 53.5 23zM350 -107.5q34 19.5 34 47.5q0 24 -19 33
t-60 9h-57q-44 0 -68 7q-31 -25 -31 -54q0 -30 31 -46t84 -16q52 0 86 19.5z" />
    <glyph glyph-name="h" unicode="h" horiz-adv-x="567" 
d="M68 703h136v-175l-6 -92q35 33 72 52t83 19q78 0 115.5 -51.5t37.5 -147.5v-308h-137v291q0 55 -15.5 77t-50.5 22q-28 0 -49 -12t-50 -40v-338h-136v703z" />
    <glyph glyph-name="i" unicode="i" horiz-adv-x="272" 
d="M68 495h136v-495h-136v495zM80.5 592.5q-21.5 20.5 -21.5 52.5t21.5 52.5t55.5 20.5t55.5 -20.5t21.5 -52.5t-21.5 -52.5t-55.5 -20.5t-55.5 20.5z" />
    <glyph glyph-name="j" unicode="j" horiz-adv-x="273" 
d="M82.5 592.5q-21.5 20.5 -21.5 52.5t21.5 52.5t55.5 20.5t55.5 -20.5t21.5 -52.5t-21.5 -52.5t-55.5 -20.5t-55.5 20.5zM75 495h137l-2 -501q0 -88 -39.5 -141t-130.5 -53q-50 0 -85 14l24 101q25 -7 41 -7q30 0 42 19.5t12 62.5z" />
    <glyph glyph-name="k" unicode="k" horiz-adv-x="539" 
d="M68 703h133v-415h4l165 207h149l-172 -203l186 -292h-148l-116 200l-68 -77v-123h-133v703z" />
    <glyph glyph-name="l" unicode="l" horiz-adv-x="281" 
d="M98 29q-30 41 -30 116v558h136v-564q0 -21 8 -30.5t18 -9.5t18 2l17 -102q-29 -11 -70 -11q-67 0 -97 41z" />
    <glyph glyph-name="m" unicode="m" horiz-adv-x="853" 
d="M68 495h111l10 -65h4q36 37 71 57t79 20q52 0 85 -21.5t52 -63.5q38 40 75 62.5t81 22.5q78 0 116 -52t38 -147v-308h-136v291q0 54 -15.5 76.5t-50.5 22.5q-40 0 -91 -52v-338h-136v291q0 54 -15.5 76.5t-50.5 22.5q-40 0 -91 -52v-338h-136v495z" />
    <glyph glyph-name="n" unicode="n" horiz-adv-x="568" 
d="M68 495h111l10 -64h4q36 35 74.5 55.5t85.5 20.5q78 0 115.5 -51.5t37.5 -147.5v-308h-137v291q0 55 -15.5 77t-50.5 22q-28 0 -49 -12t-50 -40v-338h-136v495z" />
    <glyph glyph-name="o" unicode="o" horiz-adv-x="553" 
d="M158.5 19q-54.5 31 -87.5 90t-33 138q0 80 33 139t87.5 90t118.5 31q63 0 118 -31t88 -90.5t33 -138.5t-33 -138t-88 -90t-118 -31q-64 0 -118.5 31zM350 138.5q26 39.5 26 108.5t-26 109t-73 40q-48 0 -73.5 -40t-25.5 -109t25.5 -108.5t73.5 -39.5q47 0 73 39.5z" />
    <glyph glyph-name="p" unicode="p" horiz-adv-x="570" 
d="M68 495h111l10 -50h4q31 28 68.5 45t74.5 17q90 0 142 -68t52 -184q0 -81 -29 -142t-77 -93t-103 -32q-63 0 -121 53l4 -80v-149h-136v683zM362 139q28 39 28 115q0 141 -93 141q-46 0 -93 -48v-212q40 -35 86 -35q44 0 72 39z" />
    <glyph glyph-name="q" unicode="q" horiz-adv-x="570" 
d="M366 -33l5 78q-26 -26 -60 -41.5t-68 -15.5q-93 0 -147.5 69t-54.5 190q0 78 29 137t76.5 91t100.5 32q40 0 72 -14.5t62 -46.5h3l12 49h107v-683h-137v155zM325 111.5q21 11.5 41 36.5v212q-38 35 -88 35q-41 0 -69 -38t-28 -108q0 -74 25 -111.5t72 -37.5q26 0 47 11.5
z" />
    <glyph glyph-name="r" unicode="r" horiz-adv-x="390" 
d="M68 495h111l10 -87h4q26 48 63.5 73.5t76.5 25.5q35 0 58 -10l-23 -118q-3 1 -18 4.5t-34 3.5q-32 0 -62 -23t-50 -72v-292h-136v495z" />
    <glyph glyph-name="s" unicode="s" horiz-adv-x="439" 
d="M111.5 7q-51.5 19 -89.5 50l62 86q35 -27 66.5 -40t64.5 -13q34 0 51 12.5t17 35.5q0 16 -13.5 28t-38.5 22.5t-50 20.5q-59 23 -96.5 56.5t-37.5 88.5q0 68 51 110.5t135 42.5q92 0 171 -62l-61 -82q-59 42 -106 42q-31 0 -46.5 -12t-15.5 -32t20 -32.5t46 -21.5t34 -12
q63 -23 99.5 -55.5t36.5 -93.5q0 -45 -23.5 -80.5t-68.5 -56.5t-108 -21q-48 0 -99.5 19z" />
    <glyph glyph-name="t" unicode="t" horiz-adv-x="376" 
d="M127 37.5q-40 49.5 -40 138.5v211h-69v102l76 6l16 132h113v-132h121v-108h-121v-210q0 -81 66 -81q21 0 49 10l22 -100q-54 -18 -107 -18q-86 0 -126 49.5z" />
    <glyph glyph-name="u" unicode="u" horiz-adv-x="565" 
d="M100.5 39.5q-37.5 51.5 -37.5 147.5v308h136v-291q0 -54 16 -76.5t51 -22.5q29 0 49.5 13.5t45.5 45.5v331h136v-495h-111l-10 70h-4q-34 -40 -71 -61t-85 -21q-78 0 -115.5 51.5z" />
    <glyph glyph-name="v" unicode="v" horiz-adv-x="514" 
d="M12 495h138l69 -241l39 -151h4l40 151l69 241h131l-164 -495h-157z" />
    <glyph glyph-name="w" unicode="w" horiz-adv-x="767" 
d="M24 495h136l52 -238q1 -5 15 -92q2 -18 8 -54h4q17 97 30 146l58 238h120l59 -238q16 -68 27 -126l4 -20h4l12 71q2 12 4.5 31t7.5 44l51 238h127l-121 -495h-160l-50 209q-19 99 -27 144h-4q-16 -95 -27 -145l-47 -208h-157z" />
    <glyph glyph-name="x" unicode="x" horiz-adv-x="503" 
d="M168 258l-144 237h146l48 -85q18 -37 43 -84h4l20 49l15 35l38 85h142l-144 -253l153 -242h-146l-53 87l-20 37l-27 50h-4q-10 -19 -40 -87l-43 -87h-142z" />
    <glyph glyph-name="y" unicode="y" horiz-adv-x="513" 
d="M47 -187l25 105q21 -7 34 -7q66 0 90 72l8 28l-192 484h138l75 -223q12 -35 28 -93q7 -27 13 -47h4q13 57 35 140l65 223h131l-174 -506q-36 -96 -83 -141t-128 -45q-36 0 -69 10z" />
    <glyph glyph-name="z" unicode="z" horiz-adv-x="455" 
d="M37 73l216 314h-192v108h362v-73l-216 -314h223v-108h-393v73z" />
    <glyph glyph-name="braceleft" unicode="{" horiz-adv-x="338" 
d="M137.5 -121q-29.5 31 -29.5 110q0 28 2 55.5t3 36.5q5 43 5 82q0 31 -20.5 52.5t-65.5 22.5v81q45 1 65.5 22t20.5 52q0 39 -5 82q-1 9 -3 36.5t-2 55.5q0 79 29.5 110t96.5 31h60v-73h-20q-33 0 -44.5 -15t-11.5 -58q0 -26 2 -78q3 -42 3 -88q0 -54 -17 -80.5t-55 -35.5
v-4q38 -9 55 -35.5t17 -79.5q0 -47 -3 -89q-2 -52 -2 -78q0 -43 11.5 -58t44.5 -15h20v-73h-60q-67 0 -96.5 31z" />
    <glyph glyph-name="bar" unicode="|" horiz-adv-x="264" 
d="M87 750h90v-1000h-90v1000z" />
    <glyph glyph-name="braceright" unicode="}" horiz-adv-x="338" 
d="M44 -79h20q32 0 44 15t12 58q0 26 -2 78q-3 42 -3 89q0 53 17 79.5t55 35.5v4q-38 9 -55 35.5t-17 80.5q0 46 3 88q2 52 2 78q0 43 -12 58t-44 15h-20v73h60q67 0 96.5 -31t29.5 -110q0 -28 -2 -55.5t-3 -36.5q-5 -43 -5 -82q0 -31 20.5 -52t65.5 -22v-81
q-45 -1 -65.5 -22.5t-20.5 -52.5q0 -39 5 -82q1 -9 3 -36.5t2 -55.5q0 -79 -29.5 -110t-96.5 -31h-60v73z" />
    <glyph glyph-name="asciitilde" unicode="~" 
d="M294.5 254.5q-22.5 11.5 -51.5 32.5q-23 17 -37.5 25t-31.5 8q-40 0 -72 -58l-72 54q64 101 146 101q30 0 52.5 -11.5t51.5 -32.5q23 -17 37.5 -25t31.5 -8q40 0 73 58l71 -54q-65 -101 -146 -101q-30 0 -52.5 11.5z" />
    <glyph glyph-name="uni00A0" unicode="&#xa0;" horiz-adv-x="207" 
 />
    <glyph glyph-name="exclamdown" unicode="&#xa1;" horiz-adv-x="332" 
d="M106 356q-24 25 -24 63t24 63t60 25t60 -25t24 -63t-24 -63t-60 -25t-60 25zM102 -49l19 318h90l19 -318l5 -127h-137z" />
    <glyph glyph-name="cent" unicode="&#xa2;" 
d="M419 76.5q-35 -15.5 -70 -20.5v-96h-76v97q-98 13 -155 78.5t-57 172.5q0 102 58.5 167t153.5 81v99h76v-95q76 -6 126 -56l-63 -84q-32 27 -63 30v-284q38 5 78 37l55 -86q-28 -25 -63 -40.5zM213.5 224.5q20.5 -34.5 59.5 -49.5v265q-39 -15 -59.5 -49t-20.5 -83
t20.5 -83.5z" />
    <glyph glyph-name="sterling" unicode="&#xa3;" 
d="M228 115h262v-115h-441v84q48 23 77 64.5t29 93.5q0 16 -3 32h-99v80l67 5h9q-18 54 -18 87q0 61 26.5 107t74 70.5t108.5 24.5q54 0 95 -20.5t75 -60.5l-75 -74q-36 44 -82 44q-43 0 -67 -25t-24 -73q0 -30 13 -80h150v-85h-132q2 -22 2 -33q0 -38 -11 -66t-36 -56v-4z
" />
    <glyph glyph-name="currency" unicode="&#xa4;" 
d="M21 156l61 62q-34 49 -34 112q0 62 34 111l-61 62l69 69l69 -70q46 27 103 27q55 0 103 -27l69 70l68 -69l-61 -62q34 -49 34 -111q0 -64 -35 -112l62 -62l-68 -69l-70 70q-45 -26 -102 -26q-58 0 -103 26l-69 -70zM327 255q26 29 26 75t-26 75t-65 29t-65.5 -29
t-26.5 -75t26.5 -75t65.5 -29t65 29z" />
    <glyph glyph-name="yen" unicode="&#xa5;" 
d="M193 149h-154v67h154v56h-154v67h124l-149 297h141l55 -139q24 -66 51 -132h4q18 44 52 132l55 139h137l-149 -297h125v-67h-155v-56h155v-67h-155v-149h-137v149z" />
    <glyph glyph-name="brokenbar" unicode="&#xa6;" horiz-adv-x="264" 
d="M177 618v-440v-297h-90v457v280h90z" />
    <glyph glyph-name="section" unicode="&#xa7;" 
d="M403 152q24 -34 24 -78q0 -69 -49.5 -112t-137.5 -43q-57 0 -108 21t-83 62l79 70q50 -51 112 -51q31 0 47.5 12.5t16.5 33.5q0 23 -22 38t-72 36q-54 24 -87.5 44.5t-58.5 56t-25 87.5q0 38 21.5 72t58.5 56q-29 35 -29 83q0 66 46.5 107.5t127.5 41.5q51 0 95.5 -18
t80.5 -46l-63 -85q-57 48 -106 48q-29 0 -43.5 -11.5t-14.5 -31.5t22 -35t71 -37q55 -24 91 -45.5t62 -57t26 -86.5q0 -83 -82 -132zM169 299q15 -17 36.5 -29t62.5 -30q32 -14 63 -30q20 11 29 26t9 37q0 34 -28.5 55t-89.5 47q-34 14 -58 27q-39 -24 -39 -63q0 -23 15 -40
z" />
    <glyph glyph-name="dieresis" unicode="&#xa8;" horiz-adv-x="553" 
d="M121 591.5q-19 19.5 -19 48.5t19 48.5t49 19.5t49 -19.5t19 -48.5t-19 -48.5t-49 -19.5t-49 19.5zM335 591.5q-19 19.5 -19 48.5t19 48.5t49 19.5t49 -19.5t19 -48.5t-19 -48.5t-49 -19.5t-49 19.5z" />
    <glyph glyph-name="copyright" unicode="&#xa9;" horiz-adv-x="749" 
d="M210.5 32q-75.5 41 -120 117t-44.5 176t44.5 175t120 115t164.5 40t164 -40.5t119.5 -115.5t44.5 -174q0 -100 -44.5 -176t-119.5 -117t-164 -41t-164.5 41zM509 83.5q60 34.5 95 97.5t35 144t-35 143t-95 96t-134 34t-134 -34t-95 -96t-35 -143t35 -144t95 -97.5
t134 -34.5t134 34.5zM287.5 151q-43.5 24 -68 68.5t-24.5 104.5q0 57 26.5 100.5t70.5 67.5t94 24q42 0 73 -15.5t59 -43.5l-52 -58q-17 18 -34 27t-37 9q-47 0 -74 -31.5t-27 -79.5q0 -53 26 -84.5t70 -31.5q24 0 42.5 9t41.5 27l44 -64q-63 -53 -132 -53q-55 0 -98.5 24z
" />
    <glyph glyph-name="ordfeminine" unicode="&#xaa;" horiz-adv-x="357" 
d="M58.5 399.5q-27.5 28.5 -27.5 70.5q0 53 45 81.5t143 37.5q-2 24 -14 36.5t-37 12.5q-37 0 -92 -31l-34 64q74 44 143 44q64 0 97.5 -37t33.5 -109v-190h-77l-9 34h-4q-44 -42 -95 -42q-45 0 -72.5 28.5zM219 473v60q-95 -11 -95 -55q0 -33 39 -33q28 0 56 28z" />
    <glyph glyph-name="guillemotleft" unicode="&#xab;" horiz-adv-x="472" 
d="M48 204v97l135 146l52 -42l-112 -153l112 -153l-52 -41zM232 204v97l135 146l52 -42l-112 -153l112 -153l-52 -41z" />
    <glyph glyph-name="logicalnot" unicode="&#xac;" 
d="M388 282h-354v97h455v-283h-101v186z" />
    <glyph glyph-name="uni00AD" unicode="&#xad;" horiz-adv-x="329" 
d="M43 302h243v-98h-243v98z" />
    <glyph glyph-name="registered" unicode="&#xae;" horiz-adv-x="456" 
d="M129 339q-45 26 -71.5 71.5t-26.5 103.5q0 57 26.5 103t71.5 72t99 26t98.5 -26t71 -72t26.5 -103q0 -58 -26.5 -103.5t-71 -71.5t-98.5 -26t-99 26zM332 402.5q40 42.5 40 111.5t-40 111.5t-104 42.5t-104.5 -42.5t-40.5 -111.5t40.5 -111.5t104.5 -42.5t104 42.5z
M148 614h87q36 0 58.5 -16.5t22.5 -48.5q0 -18 -9 -32.5t-27 -22.5l43 -77h-58l-31 61h-31v-61h-55v197zM224 517q16 0 24.5 8t8.5 20t-8 19.5t-24 7.5h-22v-55h21z" />
    <glyph glyph-name="macron" unicode="&#xaf;" horiz-adv-x="553" 
d="M131 681h292v-88h-292v88z" />
    <glyph glyph-name="degree" unicode="&#xb0;" horiz-adv-x="360" 
d="M109.5 421q-32.5 18 -51.5 50.5t-19 72.5q0 41 19 73t51.5 50.5t71.5 18.5t71 -18.5t51 -50.5t19 -73q0 -40 -19 -72.5t-51 -50.5t-71 -18t-71.5 18zM230 490.5q19 20.5 19 53.5q0 34 -19 54.5t-49 20.5q-31 0 -50 -20.5t-19 -54.5q0 -33 19 -53.5t50 -20.5q30 0 49 20.5
z" />
    <glyph glyph-name="plusminus" unicode="&#xb1;" 
d="M211 296h-177v97h177v172h101v-172h177v-97h-177v-143h-101v143zM34 97h455v-97h-455v97z" />
    <glyph glyph-name="acute" unicode="&#xb4;" horiz-adv-x="553" 
d="M216 640l152 179l93 -90l-177 -156z" />
    <glyph glyph-name="paragraph" unicode="&#xb6;" horiz-adv-x="624" 
d="M165 228q-58 26 -92 78t-34 126q0 117 69.5 169t183.5 52h44v-451h-40q-73 0 -131 26zM391 653h137v-733h-137v733z" />
    <glyph glyph-name="periodcentered" unicode="&#xb7;" horiz-adv-x="292" 
d="M86 258q-24 25 -24 63t24 63t60 25t60 -25t24 -63t-24 -63t-60 -25t-60 25z" />
    <glyph glyph-name="cedilla" unicode="&#xb8;" horiz-adv-x="553" 
d="M167 -181q58 3 80.5 13t22.5 32q0 17 -16.5 27t-59.5 16l47 97h81l-28 -66q38 -9 57 -26t19 -48q0 -95 -193 -101z" />
    <glyph glyph-name="ordmasculine" unicode="&#xba;" horiz-adv-x="372" 
d="M106 391.5q-37 20.5 -59 59.5t-22 91q0 53 22 92t59 60t80 21t79.5 -21t58.5 -60t22 -92q0 -52 -22 -91t-58.5 -59.5t-79.5 -20.5t-80 20.5zM231.5 473q15.5 25 15.5 69q0 45 -15.5 70.5t-45.5 25.5q-31 0 -46.5 -25.5t-15.5 -70.5q0 -44 15.5 -69t46.5 -25q30 0 45.5 25
z" />
    <glyph glyph-name="guillemotright" unicode="&#xbb;" horiz-adv-x="472" 
d="M54 99l112 153l-112 153l52 42l135 -146v-97l-135 -146zM238 99l112 153l-112 153l52 42l135 -146v-97l-135 -146z" />
    <glyph glyph-name="onequarter" unicode="&#xbc;" horiz-adv-x="835" 
d="M161 293v285h-88v62q38 6 60.5 15t49.5 28h80v-390h-102zM634 665l-354 -677h-80l354 677h80zM822 90h-58v-90h-89v90h-179v50l144 250h124v-234h58v-66zM675 156v46l5 116h-4l-41 -78l-45 -84h85z" />
    <glyph glyph-name="onehalf" unicode="&#xbd;" horiz-adv-x="840" 
d="M161 578h-88v62q38 6 60.5 15t49.5 28h80v-390h-102v285zM548 665h80l-354 -677h-80zM511 55q90 75 131.5 120t41.5 79q0 31 -16 48t-44 17q-37 0 -73 -49l-57 53q59 79 146 79q65 0 103.5 -34.5t38.5 -96.5q0 -44 -27 -84t-84 -102h126v-85h-286v55z" />
    <glyph glyph-name="threequarters" unicode="&#xbe;" horiz-adv-x="840" 
d="M290.5 314.5q-43.5 -33.5 -105.5 -33.5q-50 0 -90.5 20.5t-65.5 57.5l61 48q36 -49 85 -49q26 0 43 13.5t17 36.5q0 54 -97 54v59q39 0 61 13.5t22 38.5q0 21 -14.5 33t-37.5 12q-33 0 -67 -41l-57 51q32 35 64.5 51t76.5 16q55 0 94.5 -29.5t39.5 -78.5q0 -59 -59 -91
q33 -13 53 -37t20 -58q0 -53 -43.5 -86.5zM646 665l-353 -677h-80l353 677h80zM827 90h-58v-90h-89v90h-179v50l144 250h124v-234h58v-66zM680 156v46l5 116h-4l-41 -78l-45 -84h85z" />
    <glyph glyph-name="questiondown" unicode="&#xbf;" horiz-adv-x="457" 
d="M182 356q-24 25 -24 63t24 63t60 25t60 -25t24 -63t-24 -63t-60 -25t-60 25zM94.5 -144.5q-51.5 43.5 -51.5 126.5q0 41 18.5 71.5t54.5 70.5q34 40 51 67.5t17 63.5l-1 14h119q2 -18 2 -27q0 -45 -19.5 -79t-56.5 -76q-28 -32 -41 -52.5t-13 -43.5q0 -32 19.5 -50
t52.5 -18q27 0 49.5 12.5t45.5 35.5l76 -69q-37 -42 -85 -66t-103 -24q-83 0 -134.5 43.5z" />
    <glyph glyph-name="Agrave" unicode="&#xc0;" horiz-adv-x="568" 
d="M384 163h-205l-44 -163h-140l208 653h163l207 -653h-145zM356 269l-18 67q-12 44 -36 138l-19 74h-4q-30 -129 -53 -212l-18 -67h148zM114 801l73 89l166 -138l-60 -69z" />
    <glyph glyph-name="Aacute" unicode="&#xc1;" horiz-adv-x="568" 
d="M384 163h-205l-44 -163h-140l208 653h163l207 -653h-145zM356 269l-18 67q-12 44 -36 138l-19 74h-4q-30 -129 -53 -212l-18 -67h148zM209 752l166 138l73 -89l-179 -118z" />
    <glyph glyph-name="Acircumflex" unicode="&#xc2;" horiz-adv-x="568" 
d="M384 163h-205l-44 -163h-140l208 653h163l207 -653h-145zM356 269l-18 67q-12 44 -36 138l-19 74h-4q-30 -129 -53 -212l-18 -67h148zM115 725l92 111h148l92 -111l-59 -37l-105 85h-4l-105 -85z" />
    <glyph glyph-name="Atilde" unicode="&#xc3;" horiz-adv-x="568" 
d="M384 163h-205l-44 -163h-140l208 653h163l207 -653h-145zM356 269l-18 67q-12 44 -36 138l-19 74h-4q-30 -129 -53 -212l-18 -67h148zM304 705q-21 10 -45 28q-16 12 -26 17t-20 5q-33 0 -38 -52l-89 7q4 70 37 105t86 35q28 0 49.5 -10t44.5 -27q16 -12 26 -17t20 -5
q32 0 38 51l89 -6q-4 -70 -37 -105.5t-86 -35.5q-28 0 -49 10z" />
    <glyph glyph-name="Adieresis" unicode="&#xc4;" horiz-adv-x="568" 
d="M384 163h-205l-44 -163h-140l208 653h163l207 -653h-145zM356 269l-18 67q-12 44 -36 138l-19 74h-4q-30 -129 -53 -212l-18 -67h148zM123.5 721.5q-18.5 18.5 -18.5 47.5t18.5 48t47.5 19t48 -19t19 -48t-19 -47.5t-48 -18.5t-47.5 18.5zM343 721.5q-19 18.5 -19 47.5
t19 48t48 19t47.5 -19t18.5 -48t-18.5 -47.5t-47.5 -18.5t-48 18.5z" />
    <glyph glyph-name="Aring" unicode="&#xc5;" horiz-adv-x="568" 
d="M384 163h-205l-44 -163h-140l208 653h163l207 -653h-145zM356 269l-18 67q-12 44 -36 138l-19 74h-4q-30 -129 -53 -212l-18 -67h148zM200.5 724q-30.5 27 -30.5 71t30.5 70.5t80.5 26.5q49 0 80 -26.5t31 -70.5t-31 -71t-80 -27q-50 0 -80.5 27zM312 761.5
q12 12.5 12 33.5q0 20 -12.5 32.5t-30.5 12.5t-31 -12.5t-13 -32.5q0 -21 12.5 -33.5t31.5 -12.5t31 12.5z" />
    <glyph glyph-name="AE" unicode="&#xc6;" horiz-adv-x="842" 
d="M790 115v-115h-401v156h-182l-73 -156h-144l315 653h475v-115h-254v-143h214v-115h-214v-165h264zM389 262v287h-4l-33 -75q-23 -53 -51 -115l-45 -97h133z" />
    <glyph glyph-name="Ccedilla" unicode="&#xc7;" horiz-adv-x="580" 
d="M195.5 27q-68.5 39 -108.5 114.5t-40 181.5q0 105 41 182.5t111 118.5t153 41q59 0 108.5 -23.5t85.5 -60.5l-73 -88q-27 26 -55.5 39.5t-62.5 13.5q-48 0 -86 -26.5t-59.5 -76t-21.5 -115.5q0 -103 44.5 -162t120.5 -59q75 0 131 63l73 -86q-82 -96 -209 -96
q-84 0 -152.5 39z" />
    <glyph glyph-name="Egrave" unicode="&#xc8;" horiz-adv-x="545" 
d="M79 653h404v-115h-267v-143h227v-115h-227v-165h277v-115h-414v653zM121 801l73 89l166 -138l-60 -69z" />
    <glyph glyph-name="Eacute" unicode="&#xc9;" horiz-adv-x="545" 
d="M79 653h404v-115h-267v-143h227v-115h-227v-165h277v-115h-414v653zM216 752l166 138l73 -89l-179 -118z" />
    <glyph glyph-name="Ecircumflex" unicode="&#xca;" horiz-adv-x="545" 
d="M79 653h404v-115h-267v-143h227v-115h-227v-165h277v-115h-414v653zM122 725l92 111h148l92 -111l-59 -37l-105 85h-4l-105 -85z" />
    <glyph glyph-name="Edieresis" unicode="&#xcb;" horiz-adv-x="545" 
d="M79 653h404v-115h-267v-143h227v-115h-227v-165h277v-115h-414v653zM130.5 721.5q-18.5 18.5 -18.5 47.5t18.5 48t47.5 19t48 -19t19 -48t-19 -47.5t-48 -18.5t-47.5 18.5zM350 721.5q-19 18.5 -19 47.5t19 48t48 19t47.5 -19t18.5 -48t-18.5 -47.5t-47.5 -18.5t-48 18.5
z" />
    <glyph glyph-name="Igrave" unicode="&#xcc;" horiz-adv-x="295" 
d="M79 653h137v-653h-137v653zM-19 801l73 89l166 -138l-60 -69z" />
    <glyph glyph-name="Iacute" unicode="&#xcd;" horiz-adv-x="295" 
d="M79 653h137v-653h-137v653zM76 752l166 138l73 -89l-179 -118z" />
    <glyph glyph-name="Icircumflex" unicode="&#xce;" horiz-adv-x="295" 
d="M79 653h137v-653h-137v653zM-18 725l92 111h148l92 -111l-59 -37l-105 85h-4l-105 -85z" />
    <glyph glyph-name="Idieresis" unicode="&#xcf;" horiz-adv-x="295" 
d="M79 653h137v-653h-137v653zM-9.5 721.5q-18.5 18.5 -18.5 47.5t18.5 48t47.5 19t48 -19t19 -48t-19 -47.5t-48 -18.5t-47.5 18.5zM210 721.5q-19 18.5 -19 47.5t19 48t48 19t47.5 -19t18.5 -48t-18.5 -47.5t-47.5 -18.5t-48 18.5z" />
    <glyph glyph-name="Eth" unicode="&#xd0;" horiz-adv-x="656" 
d="M524.5 572q85.5 -81 85.5 -243t-84.5 -245.5t-232.5 -83.5h-189v305h-76v62l76 5v281h181q154 0 239.5 -81zM469 329q0 113 -49.5 163t-142.5 50h-36v-170h129v-67h-129v-194h36q192 0 192 218z" />
    <glyph glyph-name="Ntilde" unicode="&#xd1;" horiz-adv-x="662" 
d="M79 653h141l181 -339l65 -142h4q-1 17 -5 53q-12 116 -12 180v248h130v-653h-140l-181 339l-66 142h-4q1 -12 5 -45q5 -46 9 -96.5t4 -89.5v-250h-131v653zM356 705q-21 10 -45 28q-16 12 -26 17t-20 5q-33 0 -38 -52l-89 7q4 70 37 105t86 35q28 0 49.5 -10t44.5 -27
q16 -12 26 -17t20 -5q32 0 38 51l89 -6q-4 -70 -37 -105.5t-86 -35.5q-28 0 -49 10z" />
    <glyph glyph-name="Ograve" unicode="&#xd2;" horiz-adv-x="681" 
d="M187.5 29q-66.5 41 -103.5 118.5t-37 181.5q0 105 37 180.5t103.5 115.5t153.5 40t153.5 -40t103 -116t36.5 -180t-36.5 -181.5t-103 -118.5t-153.5 -41t-153.5 41zM452.5 167q41.5 60 41.5 162q0 101 -41.5 159t-111.5 58q-71 0 -112 -57.5t-41 -159.5t41.5 -162
t111.5 -60t111.5 60zM174 801l73 89l166 -138l-60 -69z" />
    <glyph glyph-name="Oacute" unicode="&#xd3;" horiz-adv-x="681" 
d="M187.5 29q-66.5 41 -103.5 118.5t-37 181.5q0 105 37 180.5t103.5 115.5t153.5 40t153.5 -40t103 -116t36.5 -180t-36.5 -181.5t-103 -118.5t-153.5 -41t-153.5 41zM452.5 167q41.5 60 41.5 162q0 101 -41.5 159t-111.5 58q-71 0 -112 -57.5t-41 -159.5t41.5 -162
t111.5 -60t111.5 60zM269 752l166 138l73 -89l-179 -118z" />
    <glyph glyph-name="Ocircumflex" unicode="&#xd4;" horiz-adv-x="681" 
d="M187.5 29q-66.5 41 -103.5 118.5t-37 181.5q0 105 37 180.5t103.5 115.5t153.5 40t153.5 -40t103 -116t36.5 -180t-36.5 -181.5t-103 -118.5t-153.5 -41t-153.5 41zM452.5 167q41.5 60 41.5 162q0 101 -41.5 159t-111.5 58q-71 0 -112 -57.5t-41 -159.5t41.5 -162
t111.5 -60t111.5 60zM175 725l92 111h148l92 -111l-59 -37l-105 85h-4l-105 -85z" />
    <glyph glyph-name="Otilde" unicode="&#xd5;" horiz-adv-x="681" 
d="M187.5 29q-66.5 41 -103.5 118.5t-37 181.5q0 105 37 180.5t103.5 115.5t153.5 40t153.5 -40t103 -116t36.5 -180t-36.5 -181.5t-103 -118.5t-153.5 -41t-153.5 41zM452.5 167q41.5 60 41.5 162q0 101 -41.5 159t-111.5 58q-71 0 -112 -57.5t-41 -159.5t41.5 -162
t111.5 -60t111.5 60zM364 705q-21 10 -45 28q-16 12 -26 17t-20 5q-33 0 -38 -52l-89 7q4 70 37 105t86 35q28 0 49.5 -10t44.5 -27q16 -12 26 -17t20 -5q32 0 38 51l89 -6q-4 -70 -37 -105.5t-86 -35.5q-28 0 -49 10z" />
    <glyph glyph-name="Odieresis" unicode="&#xd6;" horiz-adv-x="681" 
d="M187.5 29q-66.5 41 -103.5 118.5t-37 181.5q0 105 37 180.5t103.5 115.5t153.5 40t153.5 -40t103 -116t36.5 -180t-36.5 -181.5t-103 -118.5t-153.5 -41t-153.5 41zM452.5 167q41.5 60 41.5 162q0 101 -41.5 159t-111.5 58q-71 0 -112 -57.5t-41 -159.5t41.5 -162
t111.5 -60t111.5 60zM183.5 721.5q-18.5 18.5 -18.5 47.5t18.5 48t47.5 19t48 -19t19 -48t-19 -47.5t-48 -18.5t-47.5 18.5zM403 721.5q-19 18.5 -19 47.5t19 48t48 19t47.5 -19t18.5 -48t-18.5 -47.5t-47.5 -18.5t-48 18.5z" />
    <glyph glyph-name="multiply" unicode="&#xd7;" 
d="M48 183l145 146l-145 146l69 70l145 -147l144 147l69 -70l-145 -146l145 -146l-69 -69l-144 147l-145 -147z" />
    <glyph glyph-name="Oslash" unicode="&#xd8;" horiz-adv-x="681" 
d="M579 543q56 -86 56 -214q0 -104 -36.5 -181.5t-103 -118.5t-153.5 -41q-97 0 -167 50l-62 -78l-71 56l69 87q-63 90 -63 226q0 105 37 180.5t103.5 115.5t153.5 40q102 0 175 -55l65 82l72 -55zM205 220l231 289q-39 37 -94 37q-71 0 -112 -57.5t-41 -159.5
q0 -64 16 -109zM483 423l-227 -285q36 -31 86 -31q70 0 111.5 60t41.5 162q0 54 -12 94z" />
    <glyph glyph-name="Ugrave" unicode="&#xd9;" horiz-adv-x="662" 
d="M141.5 63q-65.5 75 -65.5 234v356h137v-369q0 -95 30 -136t89 -41q60 0 91 41t31 136v369h132v-356q0 -159 -64.5 -234t-189.5 -75t-190.5 75zM164 801l73 89l166 -138l-60 -69z" />
    <glyph glyph-name="Uacute" unicode="&#xda;" horiz-adv-x="662" 
d="M141.5 63q-65.5 75 -65.5 234v356h137v-369q0 -95 30 -136t89 -41q60 0 91 41t31 136v369h132v-356q0 -159 -64.5 -234t-189.5 -75t-190.5 75zM259 752l166 138l73 -89l-179 -118z" />
    <glyph glyph-name="Ucircumflex" unicode="&#xdb;" horiz-adv-x="662" 
d="M141.5 63q-65.5 75 -65.5 234v356h137v-369q0 -95 30 -136t89 -41q60 0 91 41t31 136v369h132v-356q0 -159 -64.5 -234t-189.5 -75t-190.5 75zM165 725l92 111h148l92 -111l-59 -37l-105 85h-4l-105 -85z" />
    <glyph glyph-name="Udieresis" unicode="&#xdc;" horiz-adv-x="662" 
d="M141.5 63q-65.5 75 -65.5 234v356h137v-369q0 -95 30 -136t89 -41q60 0 91 41t31 136v369h132v-356q0 -159 -64.5 -234t-189.5 -75t-190.5 75zM173.5 721.5q-18.5 18.5 -18.5 47.5t18.5 48t47.5 19t48 -19t19 -48t-19 -47.5t-48 -18.5t-47.5 18.5zM393 721.5
q-19 18.5 -19 47.5t19 48t48 19t47.5 -19t18.5 -48t-18.5 -47.5t-47.5 -18.5t-48 18.5z" />
    <glyph glyph-name="Yacute" unicode="&#xdd;" horiz-adv-x="517" 
d="M190 236l-197 417h147l63 -156l54 -144h4q4 9 8 19t9 22q24 61 40 103l63 156h143l-197 -417v-236h-137v236zM187 752l166 138l73 -89l-179 -118z" />
    <glyph glyph-name="Thorn" unicode="&#xde;" horiz-adv-x="612" 
d="M79 653h137v-101h95q116 0 184.5 -48.5t68.5 -158.5q0 -108 -71 -163t-182 -55h-95v-127h-137v653zM302 236q128 0 128 109q0 53 -31.5 75.5t-96.5 22.5h-86v-207h86z" />
    <glyph glyph-name="germandbls" unicode="&#xdf;" horiz-adv-x="623" 
d="M338.5 -0.5q-35.5 11.5 -71.5 34.5l48 93q47 -37 96 -37q28 0 44 15t16 38q0 24 -17.5 39.5t-56.5 37.5q-33 18 -54 33.5t-36 40t-15 58.5q0 26 9 46t28 48q18 25 27 44t9 44q0 32 -17.5 51.5t-49.5 19.5q-46 0 -70.5 -34t-24.5 -96v-475h-135v492q0 100 59 160.5
t172 60.5q63 0 107.5 -22.5t67 -60t22.5 -80.5q0 -37 -12.5 -62t-35.5 -56q-16 -19 -23.5 -33t-7.5 -30q0 -20 15.5 -33t48.5 -31q36 -20 58.5 -37t39.5 -46t17 -72q0 -70 -47.5 -116t-132.5 -46q-42 0 -77.5 11.5z" />
    <glyph glyph-name="agrave" unicode="&#xe0;" horiz-adv-x="524" 
d="M84.5 30q-40.5 42 -40.5 106q0 79 67 122.5t215 59.5q-3 80 -82 80q-31 0 -63 -12t-70 -34l-49 90q105 65 208 65q95 0 144 -55.5t49 -165.5v-286h-112l-10 52h-3q-74 -64 -147 -64q-66 0 -106.5 42zM281.5 105.5q20.5 11.5 44.5 34.5v95q-81 -11 -116 -33t-35 -55
q0 -26 16 -39.5t45 -13.5q25 0 45.5 11.5zM99 729l93 90l152 -179l-68 -67z" />
    <glyph glyph-name="aacute" unicode="&#xe1;" horiz-adv-x="524" 
d="M84.5 30q-40.5 42 -40.5 106q0 79 67 122.5t215 59.5q-3 80 -82 80q-31 0 -63 -12t-70 -34l-49 90q105 65 208 65q95 0 144 -55.5t49 -165.5v-286h-112l-10 52h-3q-74 -64 -147 -64q-66 0 -106.5 42zM281.5 105.5q20.5 11.5 44.5 34.5v95q-81 -11 -116 -33t-35 -55
q0 -26 16 -39.5t45 -13.5q25 0 45.5 11.5zM222 640l152 179l93 -90l-177 -156z" />
    <glyph glyph-name="acircumflex" unicode="&#xe2;" horiz-adv-x="524" 
d="M84.5 30q-40.5 42 -40.5 106q0 79 67 122.5t215 59.5q-3 80 -82 80q-31 0 -63 -12t-70 -34l-49 90q105 65 208 65q95 0 144 -55.5t49 -165.5v-286h-112l-10 52h-3q-74 -64 -147 -64q-66 0 -106.5 42zM281.5 105.5q20.5 11.5 44.5 34.5v95q-81 -11 -116 -33t-35 -55
q0 -26 16 -39.5t45 -13.5q25 0 45.5 11.5zM104 611l109 133h140l109 -133l-53 -49l-124 96h-4l-124 -96z" />
    <glyph glyph-name="atilde" unicode="&#xe3;" horiz-adv-x="524" 
d="M84.5 30q-40.5 42 -40.5 106q0 79 67 122.5t215 59.5q-3 80 -82 80q-31 0 -63 -12t-70 -34l-49 90q105 65 208 65q95 0 144 -55.5t49 -165.5v-286h-112l-10 52h-3q-74 -64 -147 -64q-66 0 -106.5 42zM281.5 105.5q20.5 11.5 44.5 34.5v95q-81 -11 -116 -33t-35 -55
q0 -26 16 -39.5t45 -13.5q25 0 45.5 11.5zM306 584.5q-19 10.5 -43 30.5q-15 13 -25 19.5t-20 6.5q-32 0 -36 -59l-86 5q1 74 32 111.5t88 37.5q25 0 44 -10.5t43 -30.5q15 -13 25 -19.5t20 -6.5q32 0 36 59l86 -5q-1 -74 -32 -111.5t-88 -37.5q-25 0 -44 10.5z" />
    <glyph glyph-name="adieresis" unicode="&#xe4;" horiz-adv-x="524" 
d="M84.5 30q-40.5 42 -40.5 106q0 79 67 122.5t215 59.5q-3 80 -82 80q-31 0 -63 -12t-70 -34l-49 90q105 65 208 65q95 0 144 -55.5t49 -165.5v-286h-112l-10 52h-3q-74 -64 -147 -64q-66 0 -106.5 42zM281.5 105.5q20.5 11.5 44.5 34.5v95q-81 -11 -116 -33t-35 -55
q0 -26 16 -39.5t45 -13.5q25 0 45.5 11.5zM127 591.5q-19 19.5 -19 48.5t19 48.5t49 19.5t49 -19.5t19 -48.5t-19 -48.5t-49 -19.5t-49 19.5zM341 591.5q-19 19.5 -19 48.5t19 48.5t49 19.5t49 -19.5t19 -48.5t-19 -48.5t-49 -19.5t-49 19.5z" />
    <glyph glyph-name="aring" unicode="&#xe5;" horiz-adv-x="524" 
d="M84.5 30q-40.5 42 -40.5 106q0 79 67 122.5t215 59.5q-3 80 -82 80q-31 0 -63 -12t-70 -34l-49 90q105 65 208 65q95 0 144 -55.5t49 -165.5v-286h-112l-10 52h-3q-74 -64 -147 -64q-66 0 -106.5 42zM281.5 105.5q20.5 11.5 44.5 34.5v95q-81 -11 -116 -33t-35 -55
q0 -26 16 -39.5t45 -13.5q25 0 45.5 11.5zM188.5 592q-33.5 29 -33.5 74t33.5 74t94.5 29t94.5 -29t33.5 -74t-33.5 -74t-94.5 -29t-94.5 29zM315.5 629q13.5 14 13.5 37q0 22 -13.5 36.5t-32.5 14.5t-32.5 -14.5t-13.5 -36.5q0 -23 13.5 -37t32.5 -14t32.5 14z" />
    <glyph glyph-name="ae" unicode="&#xe6;" horiz-adv-x="786" 
d="M89.5 30q-40.5 42 -40.5 106q0 79 66.5 122.5t212.5 59.5q-3 80 -80 80q-30 0 -62 -12t-70 -34l-49 90q105 65 199 65q47 0 82 -21t57 -59q64 80 149 80q94 0 144.5 -67t50.5 -173q0 -35 -6 -59h-290q7 -54 41 -83t83 -29q27 0 51.5 9t55.5 27l47 -89
q-38 -26 -83.5 -40.5t-89.5 -14.5q-102 0 -170 80q-52 -42 -97.5 -61t-94.5 -19q-66 0 -106.5 42zM632 293q0 51 -20.5 80t-62.5 29q-38 0 -64 -28t-32 -81h179zM293.5 106.5q26.5 12.5 49.5 35.5q-12 31 -15 71l-1 22q-77 -11 -112 -33t-35 -55q0 -26 16 -39.5t45 -13.5
q26 0 52.5 12.5z" />
    <glyph glyph-name="ccedilla" unicode="&#xe7;" horiz-adv-x="466" 
d="M351 -88q19 -17 19 -48q0 -95 -193 -101l-10 56q58 3 80.5 13t22.5 32q0 17 -16.5 27t-59.5 16l41 85q-88 14 -142.5 81t-54.5 174q0 80 34.5 139t92.5 90t127 31q81 0 145 -54l-65 -88q-19 16 -36 23.5t-36 7.5q-55 0 -88.5 -40.5t-33.5 -108.5q0 -67 32.5 -107.5
t84.5 -40.5q45 0 94 38l54 -89q-54 -47 -127 -57l-22 -53q38 -9 57 -26z" />
    <glyph glyph-name="egrave" unicode="&#xe8;" horiz-adv-x="514" 
d="M472 208h-306q10 -59 48.5 -87t89.5 -28q53 0 110 33l45 -83q-37 -26 -82.5 -40.5t-90.5 -14.5q-70 0 -126.5 31t-89 90t-32.5 138q0 78 32.5 137t85.5 91t113 32q101 0 155 -65.5t54 -171.5q0 -38 -6 -62zM361 299q0 48 -22 75.5t-67 27.5q-37 0 -65.5 -25.5
t-38.5 -77.5h193zM91 729l93 90l152 -179l-68 -67z" />
    <glyph glyph-name="eacute" unicode="&#xe9;" horiz-adv-x="514" 
d="M472 208h-306q10 -59 48.5 -87t89.5 -28q53 0 110 33l45 -83q-37 -26 -82.5 -40.5t-90.5 -14.5q-70 0 -126.5 31t-89 90t-32.5 138q0 78 32.5 137t85.5 91t113 32q101 0 155 -65.5t54 -171.5q0 -38 -6 -62zM361 299q0 48 -22 75.5t-67 27.5q-37 0 -65.5 -25.5
t-38.5 -77.5h193zM214 640l152 179l93 -90l-177 -156z" />
    <glyph glyph-name="ecircumflex" unicode="&#xea;" horiz-adv-x="514" 
d="M472 208h-306q10 -59 48.5 -87t89.5 -28q53 0 110 33l45 -83q-37 -26 -82.5 -40.5t-90.5 -14.5q-70 0 -126.5 31t-89 90t-32.5 138q0 78 32.5 137t85.5 91t113 32q101 0 155 -65.5t54 -171.5q0 -38 -6 -62zM361 299q0 48 -22 75.5t-67 27.5q-37 0 -65.5 -25.5
t-38.5 -77.5h193zM96 611l109 133h140l109 -133l-53 -49l-124 96h-4l-124 -96z" />
    <glyph glyph-name="edieresis" unicode="&#xeb;" horiz-adv-x="514" 
d="M472 208h-306q10 -59 48.5 -87t89.5 -28q53 0 110 33l45 -83q-37 -26 -82.5 -40.5t-90.5 -14.5q-70 0 -126.5 31t-89 90t-32.5 138q0 78 32.5 137t85.5 91t113 32q101 0 155 -65.5t54 -171.5q0 -38 -6 -62zM361 299q0 48 -22 75.5t-67 27.5q-37 0 -65.5 -25.5
t-38.5 -77.5h193zM119 591.5q-19 19.5 -19 48.5t19 48.5t49 19.5t49 -19.5t19 -48.5t-19 -48.5t-49 -19.5t-49 19.5zM333 591.5q-19 19.5 -19 48.5t19 48.5t49 19.5t49 -19.5t19 -48.5t-19 -48.5t-49 -19.5t-49 19.5z" />
    <glyph glyph-name="igrave" unicode="&#xec;" horiz-adv-x="272" 
d="M68 495h136v-495h-136v495zM-48 729l93 90l152 -179l-68 -67z" />
    <glyph glyph-name="iacute" unicode="&#xed;" horiz-adv-x="272" 
d="M68 495h136v-495h-136v495zM75 640l152 179l93 -90l-177 -156z" />
    <glyph glyph-name="icircumflex" unicode="&#xee;" horiz-adv-x="272" 
d="M68 495h136v-495h-136v495zM-43 611l109 133h140l109 -133l-53 -49l-124 96h-4l-124 -96z" />
    <glyph glyph-name="idieresis" unicode="&#xef;" horiz-adv-x="272" 
d="M68 495h136v-495h-136v495zM-20 591.5q-19 19.5 -19 48.5t19 48.5t49 19.5t49 -19.5t19 -48.5t-19 -48.5t-49 -19.5t-49 19.5zM194 591.5q-19 19.5 -19 48.5t19 48.5t49 19.5t49 -19.5t19 -48.5t-19 -48.5t-49 -19.5t-49 19.5z" />
    <glyph glyph-name="eth" unicode="&#xf0;" horiz-adv-x="558" 
d="M506 265q0 -80 -28.5 -143t-81.5 -98.5t-124 -35.5q-61 0 -113.5 29.5t-83.5 84t-31 125.5q0 69 28 120.5t75 79t101 27.5q68 0 109 -45q-27 83 -88 141l-141 -71l-36 61l117 60q-33 23 -93 55l60 84q81 -42 138 -86l143 72l36 -62l-121 -61q134 -136 134 -337z
M351.5 139.5q26.5 40.5 26.5 118.5q0 16 -2 46q-40 48 -101 48q-48 0 -77 -32.5t-29 -92.5q0 -59 31 -93.5t77 -34.5q48 0 74.5 40.5z" />
    <glyph glyph-name="ntilde" unicode="&#xf1;" horiz-adv-x="568" 
d="M68 495h111l10 -64h4q36 35 74.5 55.5t85.5 20.5q78 0 115.5 -51.5t37.5 -147.5v-308h-137v291q0 55 -15.5 77t-50.5 22q-28 0 -49 -12t-50 -40v-338h-136v495zM333 584.5q-19 10.5 -43 30.5q-15 13 -25 19.5t-20 6.5q-32 0 -36 -59l-86 5q1 74 32 111.5t88 37.5
q25 0 44 -10.5t43 -30.5q15 -13 25 -19.5t20 -6.5q32 0 36 59l86 -5q-1 -74 -32 -111.5t-88 -37.5q-25 0 -44 10.5z" />
    <glyph glyph-name="ograve" unicode="&#xf2;" horiz-adv-x="553" 
d="M158.5 19q-54.5 31 -87.5 90t-33 138q0 80 33 139t87.5 90t118.5 31q63 0 118 -31t88 -90.5t33 -138.5t-33 -138t-88 -90t-118 -31q-64 0 -118.5 31zM350 138.5q26 39.5 26 108.5t-26 109t-73 40q-48 0 -73.5 -40t-25.5 -109t25.5 -108.5t73.5 -39.5q47 0 73 39.5z
M93 729l93 90l152 -179l-68 -67z" />
    <glyph glyph-name="oacute" unicode="&#xf3;" horiz-adv-x="553" 
d="M158.5 19q-54.5 31 -87.5 90t-33 138q0 80 33 139t87.5 90t118.5 31q63 0 118 -31t88 -90.5t33 -138.5t-33 -138t-88 -90t-118 -31q-64 0 -118.5 31zM350 138.5q26 39.5 26 108.5t-26 109t-73 40q-48 0 -73.5 -40t-25.5 -109t25.5 -108.5t73.5 -39.5q47 0 73 39.5z
M216 640l152 179l93 -90l-177 -156z" />
    <glyph glyph-name="ocircumflex" unicode="&#xf4;" horiz-adv-x="553" 
d="M158.5 19q-54.5 31 -87.5 90t-33 138q0 80 33 139t87.5 90t118.5 31q63 0 118 -31t88 -90.5t33 -138.5t-33 -138t-88 -90t-118 -31q-64 0 -118.5 31zM350 138.5q26 39.5 26 108.5t-26 109t-73 40q-48 0 -73.5 -40t-25.5 -109t25.5 -108.5t73.5 -39.5q47 0 73 39.5z
M98 611l109 133h140l109 -133l-53 -49l-124 96h-4l-124 -96z" />
    <glyph glyph-name="otilde" unicode="&#xf5;" horiz-adv-x="553" 
d="M158.5 19q-54.5 31 -87.5 90t-33 138q0 80 33 139t87.5 90t118.5 31q63 0 118 -31t88 -90.5t33 -138.5t-33 -138t-88 -90t-118 -31q-64 0 -118.5 31zM350 138.5q26 39.5 26 108.5t-26 109t-73 40q-48 0 -73.5 -40t-25.5 -109t25.5 -108.5t73.5 -39.5q47 0 73 39.5z
M300 584.5q-19 10.5 -43 30.5q-15 13 -25 19.5t-20 6.5q-32 0 -36 -59l-86 5q1 74 32 111.5t88 37.5q25 0 44 -10.5t43 -30.5q15 -13 25 -19.5t20 -6.5q32 0 36 59l86 -5q-1 -74 -32 -111.5t-88 -37.5q-25 0 -44 10.5z" />
    <glyph glyph-name="odieresis" unicode="&#xf6;" horiz-adv-x="553" 
d="M158.5 19q-54.5 31 -87.5 90t-33 138q0 80 33 139t87.5 90t118.5 31q63 0 118 -31t88 -90.5t33 -138.5t-33 -138t-88 -90t-118 -31q-64 0 -118.5 31zM350 138.5q26 39.5 26 108.5t-26 109t-73 40q-48 0 -73.5 -40t-25.5 -109t25.5 -108.5t73.5 -39.5q47 0 73 39.5z
M121 591.5q-19 19.5 -19 48.5t19 48.5t49 19.5t49 -19.5t19 -48.5t-19 -48.5t-49 -19.5t-49 19.5zM335 591.5q-19 19.5 -19 48.5t19 48.5t49 19.5t49 -19.5t19 -48.5t-19 -48.5t-49 -19.5t-49 19.5z" />
    <glyph glyph-name="divide" unicode="&#xf7;" 
d="M207 457.5q-22 20.5 -22 52.5t22 52.5t55 20.5t55 -20.5t22 -52.5t-22 -52.5t-55 -20.5t-55 20.5zM34 379h455v-97h-455v97zM207 97.5q-22 20.5 -22 52.5t22 52.5t55 20.5t55 -20.5t22 -52.5t-22 -52.5t-55 -20.5t-55 20.5z" />
    <glyph glyph-name="oslash" unicode="&#xf8;" horiz-adv-x="553" 
d="M516 247q0 -79 -33 -138t-88 -90t-118 -31q-76 0 -135 42l-44 -55l-52 41l48 59q-56 69 -56 172q0 80 33 139t87.5 90t118.5 31q74 0 133 -41l45 55l52 -41l-48 -59q57 -70 57 -174zM179 180l160 198q-25 23 -62 23q-49 0 -78 -40t-29 -106q0 -43 9 -75zM354 134.5
q29 40.5 29 105.5q0 45 -9 76l-161 -199q26 -23 64 -23q48 0 77 40.5z" />
    <glyph glyph-name="ugrave" unicode="&#xf9;" horiz-adv-x="565" 
d="M100.5 39.5q-37.5 51.5 -37.5 147.5v308h136v-291q0 -54 16 -76.5t51 -22.5q29 0 49.5 13.5t45.5 45.5v331h136v-495h-111l-10 70h-4q-34 -40 -71 -61t-85 -21q-78 0 -115.5 51.5zM107 729l93 90l152 -179l-68 -67z" />
    <glyph glyph-name="uacute" unicode="&#xfa;" horiz-adv-x="565" 
d="M100.5 39.5q-37.5 51.5 -37.5 147.5v308h136v-291q0 -54 16 -76.5t51 -22.5q29 0 49.5 13.5t45.5 45.5v331h136v-495h-111l-10 70h-4q-34 -40 -71 -61t-85 -21q-78 0 -115.5 51.5zM230 640l152 179l93 -90l-177 -156z" />
    <glyph glyph-name="ucircumflex" unicode="&#xfb;" horiz-adv-x="565" 
d="M100.5 39.5q-37.5 51.5 -37.5 147.5v308h136v-291q0 -54 16 -76.5t51 -22.5q29 0 49.5 13.5t45.5 45.5v331h136v-495h-111l-10 70h-4q-34 -40 -71 -61t-85 -21q-78 0 -115.5 51.5zM112 611l109 133h140l109 -133l-53 -49l-124 96h-4l-124 -96z" />
    <glyph glyph-name="udieresis" unicode="&#xfc;" horiz-adv-x="565" 
d="M100.5 39.5q-37.5 51.5 -37.5 147.5v308h136v-291q0 -54 16 -76.5t51 -22.5q29 0 49.5 13.5t45.5 45.5v331h136v-495h-111l-10 70h-4q-34 -40 -71 -61t-85 -21q-78 0 -115.5 51.5zM135 591.5q-19 19.5 -19 48.5t19 48.5t49 19.5t49 -19.5t19 -48.5t-19 -48.5t-49 -19.5
t-49 19.5zM349 591.5q-19 19.5 -19 48.5t19 48.5t49 19.5t49 -19.5t19 -48.5t-19 -48.5t-49 -19.5t-49 19.5z" />
    <glyph glyph-name="yacute" unicode="&#xfd;" horiz-adv-x="513" 
d="M47 -187l25 105q21 -7 34 -7q66 0 90 72l8 28l-192 484h138l75 -223q12 -35 28 -93q7 -27 13 -47h4q13 57 35 140l65 223h131l-174 -506q-36 -96 -83 -141t-128 -45q-36 0 -69 10zM205 640l152 179l93 -90l-177 -156z" />
    <glyph glyph-name="thorn" unicode="&#xfe;" horiz-adv-x="570" 
d="M68 703h136v-176l-3 -72q28 24 61 38t67 14q93 0 147 -68.5t54 -183.5q0 -81 -29 -142t-77 -93t-103 -32q-34 0 -62.5 12t-57.5 36l3 -75v-149h-136v891zM362 139q28 39 28 115q0 141 -93 141q-46 0 -93 -48v-212q40 -35 86 -35q44 0 72 39z" />
    <glyph glyph-name="ydieresis" unicode="&#xff;" horiz-adv-x="513" 
d="M47 -187l25 105q21 -7 34 -7q66 0 90 72l8 28l-192 484h138l75 -223q12 -35 28 -93q7 -27 13 -47h4q13 57 35 140l65 223h131l-174 -506q-36 -96 -83 -141t-128 -45q-36 0 -69 10zM110 591.5q-19 19.5 -19 48.5t19 48.5t49 19.5t49 -19.5t19 -48.5t-19 -48.5t-49 -19.5
t-49 19.5zM324 591.5q-19 19.5 -19 48.5t19 48.5t49 19.5t49 -19.5t19 -48.5t-19 -48.5t-49 -19.5t-49 19.5z" />
    <glyph glyph-name="Amacron" unicode="&#x100;" horiz-adv-x="568" 
d="M384 163h-205l-44 -163h-140l208 653h163l207 -653h-145zM356 269l-18 67q-12 44 -36 138l-19 74h-4q-30 -129 -53 -212l-18 -67h148zM132 812h298v-88h-298v88z" />
    <glyph glyph-name="amacron" unicode="&#x101;" horiz-adv-x="524" 
d="M84.5 30q-40.5 42 -40.5 106q0 79 67 122.5t215 59.5q-3 80 -82 80q-31 0 -63 -12t-70 -34l-49 90q105 65 208 65q95 0 144 -55.5t49 -165.5v-286h-112l-10 52h-3q-74 -64 -147 -64q-66 0 -106.5 42zM281.5 105.5q20.5 11.5 44.5 34.5v95q-81 -11 -116 -33t-35 -55
q0 -26 16 -39.5t45 -13.5q25 0 45.5 11.5zM137 681h292v-88h-292v88z" />
    <glyph glyph-name="Abreve" unicode="&#x102;" horiz-adv-x="568" 
d="M384 163h-205l-44 -163h-140l208 653h163l207 -653h-145zM356 269l-18 67q-12 44 -36 138l-19 74h-4q-30 -129 -53 -212l-18 -67h148zM168 734q-40 35 -48 100l76 13q6 -32 28 -50t57 -18t57 18t28 50l76 -13q-8 -65 -48 -100t-113 -35t-113 35z" />
    <glyph glyph-name="abreve" unicode="&#x103;" horiz-adv-x="524" 
d="M84.5 30q-40.5 42 -40.5 106q0 79 67 122.5t215 59.5q-3 80 -82 80q-31 0 -63 -12t-70 -34l-49 90q105 65 208 65q95 0 144 -55.5t49 -165.5v-286h-112l-10 52h-3q-74 -64 -147 -64q-66 0 -106.5 42zM281.5 105.5q20.5 11.5 44.5 34.5v95q-81 -11 -116 -33t-35 -55
q0 -26 16 -39.5t45 -13.5q25 0 45.5 11.5zM160 615.5q-42 43.5 -44 112.5l78 13q6 -36 28 -59.5t61 -23.5t61 23.5t28 59.5l78 -13q-2 -69 -44 -112.5t-123 -43.5t-123 43.5z" />
    <glyph glyph-name="Ccaron" unicode="&#x10c;" horiz-adv-x="580" 
d="M195.5 27q-68.5 39 -108.5 114.5t-40 181.5q0 105 41 182.5t111 118.5t153 41q59 0 108.5 -23.5t85.5 -60.5l-73 -88q-27 26 -55.5 39.5t-62.5 13.5q-48 0 -86 -26.5t-59.5 -76t-21.5 -115.5q0 -103 44.5 -162t120.5 -59q75 0 131 63l73 -86q-82 -96 -209 -96
q-84 0 -152.5 39zM175 814l59 37l105 -85h4l105 85l59 -37l-92 -111h-148z" />
    <glyph glyph-name="ccaron" unicode="&#x10d;" horiz-adv-x="466" 
d="M156 19q-55 31 -86.5 89.5t-31.5 138.5t34.5 139t92.5 90t127 31q81 0 145 -54l-65 -88q-19 16 -36 23.5t-36 7.5q-55 0 -88.5 -40.5t-33.5 -108.5q0 -67 32.5 -107.5t84.5 -40.5q45 0 94 38l54 -89q-35 -30 -77.5 -45t-85.5 -15q-69 0 -124 31zM98 709l53 49l124 -95h4
l124 95l53 -49l-109 -132h-140z" />
    <glyph glyph-name="Emacron" unicode="&#x112;" horiz-adv-x="545" 
d="M79 653h404v-115h-267v-143h227v-115h-227v-165h277v-115h-414v653zM139 812h298v-88h-298v88z" />
    <glyph glyph-name="emacron" unicode="&#x113;" horiz-adv-x="514" 
d="M472 208h-306q10 -59 48.5 -87t89.5 -28q53 0 110 33l45 -83q-37 -26 -82.5 -40.5t-90.5 -14.5q-70 0 -126.5 31t-89 90t-32.5 138q0 78 32.5 137t85.5 91t113 32q101 0 155 -65.5t54 -171.5q0 -38 -6 -62zM361 299q0 48 -22 75.5t-67 27.5q-37 0 -65.5 -25.5
t-38.5 -77.5h193zM129 681h292v-88h-292v88z" />
    <glyph glyph-name="Ebreve" unicode="&#x114;" horiz-adv-x="545" 
d="M79 653h404v-115h-267v-143h227v-115h-227v-165h277v-115h-414v653zM175 734q-40 35 -48 100l76 13q6 -32 28 -50t57 -18t57 18t28 50l76 -13q-8 -65 -48 -100t-113 -35t-113 35z" />
    <glyph glyph-name="ebreve" unicode="&#x115;" horiz-adv-x="514" 
d="M472 208h-306q10 -59 48.5 -87t89.5 -28q53 0 110 33l45 -83q-37 -26 -82.5 -40.5t-90.5 -14.5q-70 0 -126.5 31t-89 90t-32.5 138q0 78 32.5 137t85.5 91t113 32q101 0 155 -65.5t54 -171.5q0 -38 -6 -62zM361 299q0 48 -22 75.5t-67 27.5q-37 0 -65.5 -25.5
t-38.5 -77.5h193zM152 615.5q-42 43.5 -44 112.5l78 13q6 -36 28 -59.5t61 -23.5t61 23.5t28 59.5l78 -13q-2 -69 -44 -112.5t-123 -43.5t-123 43.5z" />
    <glyph glyph-name="Eogonek" unicode="&#x118;" horiz-adv-x="545" 
d="M332 -197q-32 25 -32 69q0 41 23.5 74.5t54.5 53.5h-299v653h404v-115h-267v-143h227v-115h-227v-165h277v-115h-5q-34 -2 -60.5 -30t-26.5 -63q0 -19 12.5 -29t30.5 -10q16 0 36 14l32 -70q-18 -14 -46.5 -24t-53.5 -10q-48 0 -80 25z" />
    <glyph glyph-name="eogonek" unicode="&#x119;" horiz-adv-x="514" 
d="M288.5 -186.5q-28.5 23.5 -28.5 67.5q0 33 16.5 61.5t39.5 49.5q-13 -4 -30 -4q-70 0 -126.5 31t-89 90t-32.5 138q0 78 32.5 137t85.5 91t113 32q101 0 155 -65.5t54 -171.5q0 -38 -6 -62h-302q9 -56 44.5 -85.5t89.5 -29.5q53 0 110 33l45 -83q-63 -44 -85.5 -72.5
t-22.5 -59.5q0 -19 12.5 -29t30.5 -10q17 0 36 13l29 -62q-17 -15 -45.5 -24t-51.5 -9q-45 0 -73.5 23.5zM361 299q0 48 -22 75.5t-67 27.5q-39 0 -67.5 -27t-35.5 -76h192z" />
    <glyph glyph-name="Gdotaccent" unicode="&#x120;" horiz-adv-x="635" 
d="M200.5 27q-71.5 39 -112.5 114.5t-41 181.5q0 105 42 182.5t113.5 118.5t159.5 41q119 0 203 -84l-72 -88q-28 26 -57.5 39.5t-68.5 13.5q-81 0 -130 -58.5t-49 -159.5q0 -106 48 -163.5t141 -57.5q22 0 43 6t34 16v122h-113v112h235v-296q-36 -35 -92 -57t-121 -22
q-91 0 -162.5 39zM307 724q-23 21 -23 53t23 52.5t58 20.5t58 -20.5t23 -52.5t-23 -53t-58 -21t-58 21z" />
    <glyph glyph-name="gdotaccent" unicode="&#x121;" horiz-adv-x="530" 
d="M93.5 -181q-57.5 32 -57.5 94t71 102v4q-45 29 -45 84q0 26 15.5 51t39.5 41v4q-29 20 -47.5 54t-18.5 75q0 56 27.5 96.5t73.5 61.5t100 21q38 0 76 -12h179v-100h-83q9 -12 15 -31.5t6 -39.5q0 -81 -54 -124t-139 -43q-31 0 -62 10q-10 -9 -15 -17.5t-5 -22.5
q0 -19 17.5 -29t58.5 -10h83q92 0 139 -30t47 -95q0 -50 -33.5 -90.5t-95 -63t-143.5 -22.5q-92 0 -149.5 32zM305.5 263q20.5 23 20.5 65q0 41 -20.5 63.5t-53.5 22.5t-53 -22.5t-20 -63.5t20.5 -64.5t52.5 -23.5q33 0 53.5 23zM350 -107.5q34 19.5 34 47.5q0 24 -19 33
t-60 9h-57q-44 0 -68 7q-31 -25 -31 -54q0 -30 31 -46t84 -16q52 0 86 19.5zM216.5 592.5q-21.5 20.5 -21.5 52.5t21.5 52.5t55.5 20.5t55.5 -20.5t21.5 -52.5t-21.5 -52.5t-55.5 -20.5t-55.5 20.5z" />
    <glyph glyph-name="Hbar" unicode="&#x126;" horiz-adv-x="708" 
d="M682 487h-71v-487h-137v278h-238v-278h-137v487h-73v62l73 5v99h137v-99h238v99h137v-99h71v-67zM474 487h-238v-89h238v89z" />
    <glyph glyph-name="hbar" unicode="&#x127;" horiz-adv-x="567" 
d="M468.5 408.5q37.5 -51.5 37.5 -147.5v-261h-137v244q0 55 -15.5 77t-50.5 22q-28 0 -49 -12t-50 -40v-291h-136v559h-70v61l70 5v78h136v-77h171v-67h-171v-78l-6 -92q35 33 72 52t83 19q78 0 115.5 -51.5z" />
    <glyph glyph-name="Imacron" unicode="&#x12a;" horiz-adv-x="295" 
d="M79 653h137v-653h-137v653zM-1 812h298v-88h-298v88z" />
    <glyph glyph-name="imacron" unicode="&#x12b;" horiz-adv-x="272" 
d="M68 495h136v-495h-136v495zM-10 681h292v-88h-292v88z" />
    <glyph glyph-name="dotlessi" unicode="&#x131;" horiz-adv-x="272" 
d="M68 495h136v-495h-136v495z" />
    <glyph glyph-name="Lslash" unicode="&#x141;" horiz-adv-x="519" 
d="M485 115v-115h-399v215l-59 -35l-48 82l107 60v331h137v-269l160 89l47 -83l-207 -112v-163h262z" />
    <glyph glyph-name="lslash" unicode="&#x142;" horiz-adv-x="296" 
d="M257 101l17 -102q-29 -11 -70 -11q-67 0 -97 41t-30 116v141l-47 -29l-48 85l95 54v307h136v-240l49 29l47 -85l-96 -55v-213q0 -21 8 -30.5t18 -9.5t18 2z" />
    <glyph glyph-name="Omacron" unicode="&#x14c;" horiz-adv-x="681" 
d="M187.5 29q-66.5 41 -103.5 118.5t-37 181.5q0 105 37 180.5t103.5 115.5t153.5 40t153.5 -40t103 -116t36.5 -180t-36.5 -181.5t-103 -118.5t-153.5 -41t-153.5 41zM452.5 167q41.5 60 41.5 162q0 101 -41.5 159t-111.5 58q-71 0 -112 -57.5t-41 -159.5t41.5 -162
t111.5 -60t111.5 60zM192 812h298v-88h-298v88z" />
    <glyph glyph-name="omacron" unicode="&#x14d;" horiz-adv-x="553" 
d="M158.5 19q-54.5 31 -87.5 90t-33 138q0 80 33 139t87.5 90t118.5 31q63 0 118 -31t88 -90.5t33 -138.5t-33 -138t-88 -90t-118 -31q-64 0 -118.5 31zM350 138.5q26 39.5 26 108.5t-26 109t-73 40q-48 0 -73.5 -40t-25.5 -109t25.5 -108.5t73.5 -39.5q47 0 73 39.5z
M131 681h292v-88h-292v88z" />
    <glyph glyph-name="Obreve" unicode="&#x14e;" horiz-adv-x="681" 
d="M187.5 29q-66.5 41 -103.5 118.5t-37 181.5q0 105 37 180.5t103.5 115.5t153.5 40t153.5 -40t103 -116t36.5 -180t-36.5 -181.5t-103 -118.5t-153.5 -41t-153.5 41zM452.5 167q41.5 60 41.5 162q0 101 -41.5 159t-111.5 58q-71 0 -112 -57.5t-41 -159.5t41.5 -162
t111.5 -60t111.5 60zM228 734q-40 35 -48 100l76 13q6 -32 28 -50t57 -18t57 18t28 50l76 -13q-8 -65 -48 -100t-113 -35t-113 35z" />
    <glyph glyph-name="obreve" unicode="&#x14f;" horiz-adv-x="553" 
d="M158.5 19q-54.5 31 -87.5 90t-33 138q0 80 33 139t87.5 90t118.5 31q63 0 118 -31t88 -90.5t33 -138.5t-33 -138t-88 -90t-118 -31q-64 0 -118.5 31zM350 138.5q26 39.5 26 108.5t-26 109t-73 40q-48 0 -73.5 -40t-25.5 -109t25.5 -108.5t73.5 -39.5q47 0 73 39.5z
M154 615.5q-42 43.5 -44 112.5l78 13q6 -36 28 -59.5t61 -23.5t61 23.5t28 59.5l78 -13q-2 -69 -44 -112.5t-123 -43.5t-123 43.5z" />
    <glyph glyph-name="OE" unicode="&#x152;" horiz-adv-x="867" 
d="M203.5 37q-73.5 37 -115 111t-41.5 181q0 161 90 242.5t243 81.5h425v-115h-252v-143h212v-115h-212v-165h262v-115h-443q-95 0 -168.5 37zM416 111v431h-28q-96 0 -148 -49.5t-52 -163.5q0 -218 200 -218h28z" />
    <glyph glyph-name="oe" unicode="&#x153;" horiz-adv-x="825" 
d="M151.5 19q-52.5 31 -83 89.5t-30.5 138.5t31.5 139t84.5 90t116 31q52 0 93.5 -24.5t69.5 -68.5q30 44 71.5 68.5t87.5 24.5q94 0 145.5 -67t51.5 -173q0 -35 -6 -59h-292q7 -54 41 -83t83 -29q27 0 52.5 9t55.5 27l47 -89q-37 -26 -82.5 -40.5t-90.5 -14.5
q-47 0 -90 24.5t-73 68.5q-30 -47 -71 -70t-96 -23q-63 0 -115.5 31zM672 293q0 51 -21 80t-63 29q-39 0 -65 -28t-32 -81h181zM339 139q26 40 26 108t-26 108.5t-69 40.5t-68.5 -40.5t-25.5 -108.5t25.5 -108t68.5 -40t69 40z" />
    <glyph glyph-name="Sacute" unicode="&#x15a;" horiz-adv-x="552" 
d="M147 12.5q-63 24.5 -111 70.5l79 94q36 -32 79.5 -51t84.5 -19q48 0 73.5 18.5t25.5 51.5q0 21 -11.5 35t-29 23t-56.5 25l-86 37q-58 24 -95 67.5t-37 109.5q0 53 29.5 96.5t81.5 69t117 25.5q57 0 112 -22.5t95 -62.5l-69 -87q-34 27 -67 40t-71 13q-41 0 -65 -17
t-24 -47q0 -21 12.5 -35t31 -23t57.5 -25l84 -34q63 -26 97 -68.5t34 -108.5q0 -55 -29 -100.5t-84 -72.5t-129 -27q-66 0 -129 24.5zM217 752l166 138l73 -89l-179 -118z" />
    <glyph glyph-name="sacute" unicode="&#x15b;" horiz-adv-x="439" 
d="M111.5 7q-51.5 19 -89.5 50l62 86q35 -27 66.5 -40t64.5 -13q34 0 51 12.5t17 35.5q0 16 -13.5 28t-38.5 22.5t-50 20.5q-59 23 -96.5 56.5t-37.5 88.5q0 68 51 110.5t135 42.5q92 0 171 -62l-61 -82q-59 42 -106 42q-31 0 -46.5 -12t-15.5 -32t20 -32.5t46 -21.5t34 -12
q63 -23 99.5 -55.5t36.5 -93.5q0 -45 -23.5 -80.5t-68.5 -56.5t-108 -21q-48 0 -99.5 19zM178 640l152 179l93 -90l-177 -156z" />
    <glyph glyph-name="Scaron" unicode="&#x160;" horiz-adv-x="552" 
d="M147 12.5q-63 24.5 -111 70.5l79 94q36 -32 79.5 -51t84.5 -19q48 0 73.5 18.5t25.5 51.5q0 21 -11.5 35t-29 23t-56.5 25l-86 37q-58 24 -95 67.5t-37 109.5q0 53 29.5 96.5t81.5 69t117 25.5q57 0 112 -22.5t95 -62.5l-69 -87q-34 27 -67 40t-71 13q-41 0 -65 -17
t-24 -47q0 -21 12.5 -35t31 -23t57.5 -25l84 -34q63 -26 97 -68.5t34 -108.5q0 -55 -29 -100.5t-84 -72.5t-129 -27q-66 0 -129 24.5zM123 814l59 37l105 -85h4l105 85l59 -37l-92 -111h-148z" />
    <glyph glyph-name="scaron" unicode="&#x161;" horiz-adv-x="439" 
d="M111.5 7q-51.5 19 -89.5 50l62 86q35 -27 66.5 -40t64.5 -13q34 0 51 12.5t17 35.5q0 16 -13.5 28t-38.5 22.5t-50 20.5q-59 23 -96.5 56.5t-37.5 88.5q0 68 51 110.5t135 42.5q92 0 171 -62l-61 -82q-59 42 -106 42q-31 0 -46.5 -12t-15.5 -32t20 -32.5t46 -21.5t34 -12
q63 -23 99.5 -55.5t36.5 -93.5q0 -45 -23.5 -80.5t-68.5 -56.5t-108 -21q-48 0 -99.5 19zM60 709l53 49l124 -95h4l124 95l53 -49l-109 -132h-140z" />
    <glyph glyph-name="Umacron" unicode="&#x16a;" horiz-adv-x="662" 
d="M141.5 63q-65.5 75 -65.5 234v356h137v-369q0 -95 30 -136t89 -41q60 0 91 41t31 136v369h132v-356q0 -159 -64.5 -234t-189.5 -75t-190.5 75zM182 812h298v-88h-298v88z" />
    <glyph glyph-name="umacron" unicode="&#x16b;" horiz-adv-x="565" 
d="M100.5 39.5q-37.5 51.5 -37.5 147.5v308h136v-291q0 -54 16 -76.5t51 -22.5q29 0 49.5 13.5t45.5 45.5v331h136v-495h-111l-10 70h-4q-34 -40 -71 -61t-85 -21q-78 0 -115.5 51.5zM145 681h292v-88h-292v88z" />
    <glyph glyph-name="Ydieresis" unicode="&#x178;" horiz-adv-x="517" 
d="M190 236l-197 417h147l63 -156l54 -144h4q4 9 8 19t9 22q24 61 40 103l63 156h143l-197 -417v-236h-137v236zM101.5 721.5q-18.5 18.5 -18.5 47.5t18.5 48t47.5 19t48 -19t19 -48t-19 -47.5t-48 -18.5t-47.5 18.5zM321 721.5q-19 18.5 -19 47.5t19 48t48 19t47.5 -19
t18.5 -48t-18.5 -47.5t-47.5 -18.5t-48 18.5z" />
    <glyph glyph-name="Zcaron" unicode="&#x17d;" horiz-adv-x="541" 
d="M37 83l298 455h-270v115h439v-83l-298 -455h300v-115h-469v83zM117 814l59 37l105 -85h4l105 85l59 -37l-92 -111h-148z" />
    <glyph glyph-name="zcaron" unicode="&#x17e;" horiz-adv-x="455" 
d="M37 73l216 314h-192v108h362v-73l-216 -314h223v-108h-393v73zM70 709l53 49l124 -95h4l124 95l53 -49l-109 -132h-140z" />
    <glyph glyph-name="uni018F" unicode="&#x18f;" horiz-adv-x="673" 
d="M490.5 626.5q64.5 -38.5 100 -114.5t35.5 -184q0 -109 -36 -185t-101.5 -115.5t-153.5 -39.5q-87 0 -150.5 39t-98 114.5t-34.5 181.5q0 15 1 26t2 19h434q-7 93 -48.5 139t-117.5 46q-77 0 -145 -62l-63 94q41 37 97 58.5t127 21.5q87 0 151.5 -38.5zM437 142
q40 42 50 126h-295q5 -84 42.5 -126t100.5 -42q62 0 102 42z" />
    <glyph glyph-name="florin" unicode="&#x192;" 
d="M339 469l-7 -56h107v-100h-119l-23 -196q-12 -102 -52.5 -158t-132.5 -56q-60 2 -84 16l19 101q18 -7 45 -9q26 1 41 14t24 43t16 87l18 158h-77v95l73 5h15l5 45q12 110 57.5 158.5t139.5 48.5q19 0 44 -5.5t41 -12.5l-26 -103q-29 12 -48 12q-66 0 -76 -87z" />
    <glyph glyph-name="Gcaron" unicode="&#x1e6;" horiz-adv-x="635" 
d="M200.5 27q-71.5 39 -112.5 114.5t-41 181.5q0 105 42 182.5t113.5 118.5t159.5 41q119 0 203 -84l-72 -88q-28 26 -57.5 39.5t-68.5 13.5q-81 0 -130 -58.5t-49 -159.5q0 -106 48 -163.5t141 -57.5q22 0 43 6t34 16v122h-113v112h235v-296q-36 -35 -92 -57t-121 -22
q-91 0 -162.5 39zM199 814l59 37l105 -85h4l105 85l59 -37l-92 -111h-148z" />
    <glyph glyph-name="gcaron" unicode="&#x1e7;" horiz-adv-x="530" 
d="M93.5 -181q-57.5 32 -57.5 94t71 102v4q-45 29 -45 84q0 26 15.5 51t39.5 41v4q-29 20 -47.5 54t-18.5 75q0 56 27.5 96.5t73.5 61.5t100 21q38 0 76 -12h179v-100h-83q9 -12 15 -31.5t6 -39.5q0 -81 -54 -124t-139 -43q-31 0 -62 10q-10 -9 -15 -17.5t-5 -22.5
q0 -19 17.5 -29t58.5 -10h83q92 0 139 -30t47 -95q0 -50 -33.5 -90.5t-95 -63t-143.5 -22.5q-92 0 -149.5 32zM305.5 263q20.5 23 20.5 65q0 41 -20.5 63.5t-53.5 22.5t-53 -22.5t-20 -63.5t20.5 -64.5t52.5 -23.5q33 0 53.5 23zM350 -107.5q34 19.5 34 47.5q0 24 -19 33
t-60 9h-57q-44 0 -68 7q-31 -25 -31 -54q0 -30 31 -46t84 -16q52 0 86 19.5zM93 709l53 49l124 -95h4l124 95l53 -49l-109 -132h-140z" />
    <glyph glyph-name="uni0250" unicode="&#x250;" horiz-adv-x="530" 
d="M116 45.5q-55 57.5 -55 168.5v281h112l10 -62h3q31 35 72 54.5t88 19.5q61 0 97.5 -37.5t36.5 -97.5q0 -82 -68 -131t-214 -65q2 -36 26 -57.5t72 -21.5q31 0 61 11.5t69 34.5l49 -90q-102 -65 -199 -65q-105 0 -160 57.5zM314.5 294q34.5 23 34.5 57q0 25 -15 37.5
t-39 12.5q-49 0 -97 -57v-84q82 11 116.5 34z" />
    <glyph glyph-name="uni0254" unicode="&#x254;" horiz-adv-x="466" 
d="M100.5 3q-42.5 15 -77.5 45l54 89q49 -38 94 -38q51 0 84 40.5t33 107.5t-31.5 108t-80.5 41q-25 0 -44 -7.5t-38 -23.5l-65 88q68 54 163 54q65 0 118.5 -30.5t85.5 -89.5t32 -140q0 -80 -32 -138.5t-87 -89.5t-123 -31q-43 0 -85.5 15z" />
    <glyph glyph-name="uni0259" unicode="&#x259;" horiz-adv-x="514" 
d="M92 54q-55 66 -55 173q0 33 5 63h302q-7 55 -38 83.5t-81 28.5q-57 0 -111 -34l-46 89q38 25 84.5 37.5t95.5 12.5q65 0 117 -31.5t82 -90t30 -137.5q0 -78 -31 -137t-83.5 -91t-114.5 -32q-101 0 -156 66zM312 119.5q27 26.5 34 79.5h-192q0 -50 23 -78t68 -28
q40 0 67 26.5z" />
    <glyph glyph-name="uni025B" unicode="&#x25b;" horiz-adv-x="458" 
d="M158 6q-50 18 -80.5 52.5t-30.5 81.5q0 92 104 120v4q-39 12 -60 41t-21 62q0 69 56.5 104.5t141.5 35.5q83 0 158 -46l-51 -88q-27 15 -50 22t-50 7q-32 0 -51.5 -14.5t-19.5 -39.5q0 -49 76 -49h66v-91h-81q-43 0 -63.5 -13t-20.5 -41t27.5 -44.5t70.5 -16.5
q53 0 106 33l54 -87q-43 -28 -83.5 -39.5t-89.5 -11.5q-58 0 -108 18z" />
    <glyph glyph-name="uni0283" unicode="&#x283;" horiz-adv-x="273" 
d="M-50 -186l25 101q23 -7 40 -7q30 0 42 19.5t12 62.5v532q0 88 42 140.5t138 52.5q42 0 75 -13l-24 -101q-17 7 -30 7q-36 0 -50 -19.5t-14 -63.5v-531q0 -88 -39.5 -141t-130.5 -53q-51 0 -86 14z" />
    <glyph glyph-name="uni028E" unicode="&#x28e;" horiz-adv-x="513" 
d="M195 529q36 96 83 141t128 45q36 0 69 -10l-25 -105q-21 7 -34 7q-66 0 -90 -72l-17 -51l192 -484h-138l-75 223q-12 35 -28 93q-7 27 -13 47h-4q-13 -57 -35 -140l-65 -223h-131z" />
    <glyph glyph-name="uni0292" unicode="&#x292;" horiz-adv-x="455" 
d="M5 -119l62 85q28 -26 59 -40.5t68 -14.5q45 0 74 30.5t29 82.5q0 47 -27.5 73.5t-74.5 26.5q-19 0 -29.5 -2.5t-29.5 -10.5l-46 67l158 209h-209v108h372v-73l-155 -205q83 -4 130.5 -56t47.5 -133q0 -71 -30.5 -122.5t-81.5 -78.5t-112 -27q-120 0 -205 81z" />
    <glyph glyph-name="uni0294" unicode="&#x294;" horiz-adv-x="443" 
d="M132 318q87 56 122 97t35 91q0 46 -26.5 72t-71.5 26q-70 0 -128 -65l-69 87q85 89 211 89q61 0 111.5 -23t80 -69t29.5 -111q0 -77 -39 -131t-119 -115v-266h-136v318z" />
    <glyph glyph-name="uni0295" unicode="&#x295;" horiz-adv-x="496" 
d="M198 266q-80 61 -119 115t-39 131q0 65 31 111t83.5 69t116.5 23q120 0 200 -89l-68 -87q-54 65 -118 65q-50 0 -79 -26t-29 -72q0 -50 35 -91t122 -97v-318h-136v266z" />
    <glyph glyph-name="uni02A7" unicode="&#x2a7;" horiz-adv-x="592" 
d="M324 -186l25 101q23 -7 40 -7q30 0 42 19.5t12 62.5v532q0 88 42 140.5t138 52.5q42 0 75 -13l-25 -101q-17 7 -30 7q-35 0 -49.5 -20t-14.5 -63v-531q0 -88 -39.5 -141t-130.5 -53q-50 0 -85 14zM127 37.5q-40 49.5 -40 138.5v211h-69v102l76 6l16 132h113v-132h121
v-108h-121v-210q0 -81 66 -81q21 0 49 10l22 -100q-54 -18 -107 -18q-86 0 -126 49.5z" />
    <glyph glyph-name="uni02B9" unicode="&#x2b9;" horiz-adv-x="292" 
 />
    <glyph glyph-name="circumflex" unicode="&#x2c6;" horiz-adv-x="553" 
d="M98 611l109 133h140l109 -133l-53 -49l-124 96h-4l-124 -96z" />
    <glyph glyph-name="caron" unicode="&#x2c7;" horiz-adv-x="553" 
d="M98 709l53 49l124 -95h4l124 95l53 -49l-109 -132h-140z" />
    <glyph glyph-name="uni02C8" unicode="&#x2c8;" horiz-adv-x="142" 
d="M16 742h110l-6 -203h-98z" />
    <glyph glyph-name="uni02D0" unicode="&#x2d0;" horiz-adv-x="292" 
d="M174 243l63 -156h-182l63 156l-63 156h182z" />
    <glyph glyph-name="breve" unicode="&#x2d8;" horiz-adv-x="553" 
d="M154 615.5q-42 43.5 -44 112.5l78 13q6 -36 28 -59.5t61 -23.5t61 23.5t28 59.5l78 -13q-2 -69 -44 -112.5t-123 -43.5t-123 43.5z" />
    <glyph glyph-name="dotaccent" unicode="&#x2d9;" horiz-adv-x="553" 
d="M221.5 592.5q-21.5 20.5 -21.5 52.5t21.5 52.5t55.5 20.5t55.5 -20.5t21.5 -52.5t-21.5 -52.5t-55.5 -20.5t-55.5 20.5z" />
    <glyph glyph-name="ring" unicode="&#x2da;" horiz-adv-x="553" 
d="M182.5 592q-33.5 29 -33.5 74t33.5 74t94.5 29t94.5 -29t33.5 -74t-33.5 -74t-94.5 -29t-94.5 29zM309.5 629q13.5 14 13.5 37q0 22 -13.5 36.5t-32.5 14.5t-32.5 -14.5t-13.5 -36.5q0 -23 13.5 -37t32.5 -14t32.5 14z" />
    <glyph glyph-name="ogonek" unicode="&#x2db;" horiz-adv-x="553" 
 />
    <glyph glyph-name="tilde" unicode="&#x2dc;" horiz-adv-x="553" 
d="M300 584.5q-19 10.5 -43 30.5q-15 13 -25 19.5t-20 6.5q-32 0 -36 -59l-86 5q1 74 32 111.5t88 37.5q25 0 44 -10.5t43 -30.5q15 -13 25 -19.5t20 -6.5q32 0 36 59l86 -5q-1 -74 -32 -111.5t-88 -37.5q-25 0 -44 10.5z" />
    <glyph glyph-name="hungarumlaut" unicode="&#x2dd;" horiz-adv-x="553" 
d="M153 598l87 180l93 -42l-108 -170zM328 598l87 180l92 -42l-107 -170z" />
    <glyph glyph-name="gravecomb" unicode="&#x300;" horiz-adv-x="0" 
d="M-184 729l93 90l152 -179l-68 -67z" />
    <glyph glyph-name="acutecomb" unicode="&#x301;" horiz-adv-x="0" 
d="M-61 640l152 179l93 -90l-177 -156z" />
    <glyph glyph-name="uni0302" unicode="&#x302;" horiz-adv-x="0" 
d="M-179 611l109 133h140l109 -133l-53 -49l-124 96h-4l-124 -96z" />
    <glyph glyph-name="tildecomb" unicode="&#x303;" horiz-adv-x="0" 
d="M23 584.5q-19 10.5 -43 30.5q-15 13 -25 19.5t-20 6.5q-32 0 -36 -59l-86 5q1 74 32 111.5t88 37.5q25 0 44 -10.5t43 -30.5q15 -13 25 -19.5t20 -6.5q32 0 36 59l86 -5q-1 -74 -32 -111.5t-88 -37.5q-25 0 -44 10.5z" />
    <glyph glyph-name="uni0304" unicode="&#x304;" horiz-adv-x="0" 
d="M-146 681h292v-88h-292v88z" />
    <glyph glyph-name="uni0306" unicode="&#x306;" horiz-adv-x="0" 
d="M-123 615.5q-42 43.5 -44 112.5l78 13q6 -36 28 -59.5t61 -23.5t61 23.5t28 59.5l78 -13q-2 -69 -44 -112.5t-123 -43.5t-123 43.5z" />
    <glyph glyph-name="uni0307" unicode="&#x307;" horiz-adv-x="0" 
d="M-55.5 592.5q-21.5 20.5 -21.5 52.5t21.5 52.5t55.5 20.5t55.5 -20.5t21.5 -52.5t-21.5 -52.5t-55.5 -20.5t-55.5 20.5z" />
    <glyph glyph-name="uni0308" unicode="&#x308;" horiz-adv-x="0" 
d="M-156 591.5q-19 19.5 -19 48.5t19 48.5t49 19.5t49 -19.5t19 -48.5t-19 -48.5t-49 -19.5t-49 19.5zM58 591.5q-19 19.5 -19 48.5t19 48.5t49 19.5t49 -19.5t19 -48.5t-19 -48.5t-49 -19.5t-49 19.5z" />
    <glyph glyph-name="uni030A" unicode="&#x30a;" horiz-adv-x="0" 
d="M-94.5 592q-33.5 29 -33.5 74t33.5 74t94.5 29t94.5 -29t33.5 -74t-33.5 -74t-94.5 -29t-94.5 29zM32.5 629q13.5 14 13.5 37q0 22 -13.5 36.5t-32.5 14.5t-32.5 -14.5t-13.5 -36.5q0 -23 13.5 -37t32.5 -14t32.5 14z" />
    <glyph glyph-name="uni030B" unicode="&#x30b;" horiz-adv-x="0" 
d="M-124 598l87 180l93 -42l-108 -170zM51 598l87 180l92 -42l-107 -170z" />
    <glyph glyph-name="uni030C" unicode="&#x30c;" horiz-adv-x="0" 
d="M-179 709l53 49l124 -95h4l124 95l53 -49l-109 -132h-140z" />
    <glyph glyph-name="uni031E" unicode="&#x31e;" horiz-adv-x="0" 
d="M-37 -151h-69v67h212v-67h-69v-105h-74v105z" />
    <glyph glyph-name="dotbelowcomb" unicode="&#x323;" horiz-adv-x="0" 
d="M-55.5 -202.5q-21.5 20.5 -21.5 52.5t21.5 52.5t55.5 20.5t55.5 -20.5t21.5 -52.5t-21.5 -52.5t-55.5 -20.5t-55.5 20.5z" />
    <glyph glyph-name="uni0327" unicode="&#x327;" horiz-adv-x="0" 
d="M-110 -181q58 3 80.5 13t22.5 32q0 17 -16.5 27t-59.5 16l47 97h81l-28 -66q38 -9 57 -26t19 -48q0 -95 -193 -101z" />
    <glyph glyph-name="uni032E" unicode="&#x32e;" horiz-adv-x="0" 
d="M-123 -189.5q-42 43.5 -44 112.5l78 13q6 -36 28 -59.5t61 -23.5t61 23.5t28 59.5l78 -13q-2 -69 -44 -112.5t-123 -43.5t-123 43.5z" />
    <glyph glyph-name="uni0331" unicode="&#x331;" horiz-adv-x="0" 
d="M-146 -98h292v-88h-292v88z" />
    <glyph glyph-name="uni0361" unicode="&#x361;" horiz-adv-x="0" 
d="M-457 602q102 62 218.5 93t238.5 31t238.5 -31t218.5 -93l-36 -64q-90 52 -202 76t-219 24t-219 -24t-202 -76z" />
    <glyph glyph-name="theta" unicode="&#x3b8;" horiz-adv-x="545" 
d="M435.5 623q59.5 -92 59.5 -269q0 -181 -59.5 -273.5t-162.5 -92.5q-104 0 -163.5 93t-59.5 273q0 178 59.5 269.5t163.5 91.5q103 0 162.5 -92zM210.5 559q-23.5 -45 -26.5 -159h178q-4 114 -27.5 159t-61.5 45q-39 0 -62.5 -45zM335 146.5q24 47.5 27 162.5h-178
q4 -116 27 -163t62 -47q38 0 62 47.5z" />
    <glyph glyph-name="pi" unicode="&#x3c0;" horiz-adv-x="627" 
d="M408 29.5q-33 41.5 -33 120.5l1 68q3 150 3 169h-124q0 -82 -7 -177t-19 -218l-137 8q35 204 35 387h-108v102l73 6h512v-108h-94q-7 -106 -7 -243q0 -25 11 -35t34 -10q7 0 37 4l17 -101q-38 -14 -86 -14q-75 0 -108 41.5z" />
    <glyph glyph-name="chi" unicode="&#x3c7;" horiz-adv-x="519" 
d="M9 -177l189 342l-189 312l135 30l120 -222h4l94 210h142l-171 -327l199 -327l-135 -30l-129 245h-4l-115 -245z" />
    <glyph glyph-name="uni05B0" unicode="&#x5b0;" horiz-adv-x="0" 
d="M88 -81q9 -10 9 -25t-9 -25t-24 -10t-24.5 10t-9.5 25t9.5 25t24.5 10t24 -10zM88 -184q9 -11 9 -25q0 -15 -9 -25t-24 -10t-24.5 10t-9.5 25q0 14 10 25t24 11q15 0 24 -11z" />
    <glyph glyph-name="uni05B1" unicode="&#x5b1;" horiz-adv-x="0" 
d="M88 -81q9 -10 9 -25t-9 -25t-24 -10t-24.5 10t-9.5 25t9.5 25t24.5 10t24 -10zM192 -81q9 -10 9 -25t-9 -25t-24 -10t-24.5 10t-9.5 25t9.5 25t24.5 10t24 -10zM296 -81q9 -10 9 -25t-9 -25t-24 -10t-24.5 10t-9.5 25t9.5 25t24.5 10t24 -10zM139 -184q9 -11 9 -25
q0 -15 -9 -25t-24 -10t-24.5 10t-9.5 25q0 14 10 25t24 11q15 0 24 -11zM296 -184q9 -11 9 -25q0 -15 -9 -25t-24 -10t-24.5 10t-9.5 25q0 14 10 25t24 11q15 0 24 -11z" />
    <glyph glyph-name="uni05B2" unicode="&#x5b2;" horiz-adv-x="0" 
d="M285 -81q9 -10 9 -25t-9 -25t-24 -10t-24.5 10t-9.5 25t9.5 25t24.5 10t24 -10zM196 -124h-166v39h166v-39zM284.5 -184q9.5 -11 9.5 -25q0 -15 -9 -25t-24 -10t-24.5 10t-9.5 25q0 14 10 25t24 11t23.5 -11z" />
    <glyph glyph-name="uni05B3" unicode="&#x5b3;" horiz-adv-x="0" 
d="M285 -81q9 -10 9 -25t-9 -25t-24 -10t-24.5 10t-9.5 25t9.5 25t24.5 10t24 -10zM196 -124h-67l6 -100h-44l5 100h-66v39h166v-39zM284.5 -184q9.5 -11 9.5 -25q0 -15 -9 -25t-24 -10t-24.5 10t-9.5 25q0 14 10 25t24 11t23.5 -11z" />
    <glyph glyph-name="uni05B4" unicode="&#x5b4;" horiz-adv-x="0" 
d="M88 -81q9 -10 9 -25t-9 -25t-24 -10t-24.5 10t-9.5 25t9.5 25t24.5 10t24 -10z" />
    <glyph glyph-name="uni05B5" unicode="&#x5b5;" horiz-adv-x="0" 
d="M88 -81q9 -10 9 -25t-9 -25t-24 -10t-24.5 10t-9.5 25t9.5 25t24.5 10t24 -10zM195 -81q9 -10 9 -25t-9 -25t-24 -10t-24.5 10t-9.5 25t9.5 25t24.5 10t24 -10z" />
    <glyph glyph-name="uni05B6" unicode="&#x5b6;" horiz-adv-x="0" 
d="M88 -81q9 -10 9 -25t-9 -25t-24 -10t-24.5 10t-9.5 25t9.5 25t24.5 10t24 -10zM195 -81q9 -10 9 -25t-9 -25t-24 -10t-24.5 10t-9.5 25t9.5 25t24.5 10t24 -10zM141 -174q9 -10 9 -24q0 -15 -9 -25.5t-24 -10.5t-24.5 10.5t-9.5 25.5q0 14 9.5 24t24.5 10t24 -10z" />
    <glyph glyph-name="uni05B7" unicode="&#x5b7;" horiz-adv-x="0" 
d="M196 -108h-166v39h166v-39z" />
    <glyph glyph-name="uni05B8" unicode="&#x5b8;" horiz-adv-x="0" 
d="M196 -108h-67l6 -100h-44l5 100h-66v39h166v-39z" />
    <glyph glyph-name="uni05B9" unicode="&#x5b9;" horiz-adv-x="0" 
d="M88 576.5q9 -10.5 9 -24.5q0 -15 -9 -25.5t-24 -10.5t-24.5 10.5t-9.5 25.5q0 14 9.5 24.5t24.5 10.5t24 -10.5z" />
    <glyph glyph-name="uni05BA" unicode="&#x5ba;" horiz-adv-x="0" 
d="M39.5 526.5q-9.5 10.5 -9.5 25.5q0 14 9.5 24.5t24.5 10.5t24 -10.5t9 -24.5q0 -15 -9 -25.5t-24 -10.5t-24.5 10.5z" />
    <glyph glyph-name="uni05BB" unicode="&#x5bb;" horiz-adv-x="0" 
d="M88 -81q9 -10 9 -25t-9 -25t-24 -10t-24.5 10t-9.5 25t9.5 25t24.5 10t24 -10zM158 -149q9 -10 9 -25t-9 -25t-24 -10t-24.5 10t-9.5 25t9.5 25t24.5 10t24 -10zM228 -217q9 -10 9 -25t-9 -25t-24 -10t-24.5 10t-9.5 25t9.5 25t24.5 10t24 -10z" />
    <glyph glyph-name="uni05BC" unicode="&#x5bc;" horiz-adv-x="0" 
d="M88 314.5q9 -10.5 9 -24.5q0 -15 -9 -25.5t-24 -10.5t-24.5 10.5t-9.5 25.5q0 13 10 24t24 11q15 0 24 -10.5z" />
    <glyph glyph-name="uni05BE" unicode="&#x5be;" horiz-adv-x="329" 
d="M45 571h239v-108h-239v108z" />
    <glyph glyph-name="uni05BF" unicode="&#x5bf;" horiz-adv-x="0" 
d="M221 523h-189v53h189v-53z" />
    <glyph glyph-name="uni05C0" unicode="&#x5c0;" horiz-adv-x="182" 
d="M56 645h70v-745h-70v745z" />
    <glyph glyph-name="uni05C1" unicode="&#x5c1;" horiz-adv-x="0" 
d="M88 580.5q9 -10.5 9 -24.5q0 -15 -9 -25.5t-24 -10.5t-24.5 10.5t-9.5 25.5q0 14 9.5 24.5t24.5 10.5t24 -10.5z" />
    <glyph glyph-name="uni05C2" unicode="&#x5c2;" horiz-adv-x="0" 
d="M88 580.5q9 -10.5 9 -24.5q0 -15 -9 -25.5t-24 -10.5t-24.5 10.5t-9.5 25.5q0 14 9.5 24.5t24.5 10.5t24 -10.5z" />
    <glyph glyph-name="uni05C3" unicode="&#x5c3;" horiz-adv-x="218" 
d="M33 419l77 75l75 -75l-75 -77zM33 94l77 76l75 -76l-75 -77z" />
    <glyph glyph-name="uni05C7" unicode="&#x5c7;" horiz-adv-x="0" 
d="M132 -108h-42l13 -100h-44l12 100h-41v39h102v-39z" />
    <glyph glyph-name="uni05D0" unicode="&#x5d0;" horiz-adv-x="617" 
d="M435 0l-188 291l-89 -291h-137l111 343l31 77l-93 151h145l80 -130l72 -109l27 91l40 148h137l-120 -364l138 -207h-154z" />
    <glyph glyph-name="uni05D1" unicode="&#x5d1;" horiz-adv-x="543" 
d="M513 108v-108h-211h-264v108h264v282q0 73 -68 73h-196v108h236q80 0 126 -45.5t46 -142.5v-275h67z" />
    <glyph glyph-name="uni05D2" unicode="&#x5d2;" horiz-adv-x="424" 
d="M246 0l-18 107q-28 -45 -65.5 -76t-92.5 -50l-53 114q140 44 190 140v163q0 36 -11 51t-37 19l-63 9l18 106l118 -16q61 -8 90 -45.5t29 -107.5v-190l32 -224h-137z" />
    <glyph glyph-name="uni05D3" unicode="&#x5d3;" horiz-adv-x="542" 
d="M263 346q0 38 7.5 68.5t20.5 48.5h-256v108h469v-108h-78q-19 -43 -19 -117v-346h-144v346z" />
    <glyph glyph-name="uni05D4" unicode="&#x5d4;" horiz-adv-x="573" 
d="M382 390q0 73 -67 73h-261v108h300q80 0 126.5 -45.5t46.5 -142.5v-383h-145v390zM48 273l20 67h125v-340h-145v273z" />
    <glyph glyph-name="uni05D5" unicode="&#x5d5;" horiz-adv-x="259" 
d="M61 454l-12 117h144l12 -117v-454h-144v454z" />
    <glyph glyph-name="uni05D6" unicode="&#x5d6;" horiz-adv-x="375" 
d="M101 346q0 38 7.5 68.5t20.5 48.5h-90v108h297v-108h-75q-11 -22 -13.5 -50t-2.5 -67v-346h-144v346z" />
    <glyph glyph-name="uni05D7" unicode="&#x5d7;" horiz-adv-x="595" 
d="M497.5 523q46.5 -48 46.5 -145v-378h-145v385q0 78 -67 78h-134v-463h-144v506v65h317q80 0 126.5 -48z" />
    <glyph glyph-name="uni05D8" unicode="&#x5d8;" horiz-adv-x="591" 
d="M40 571h145l49 -453q104 10 148 61.5t42 146.5v31q0 45 -24.5 76.5t-73.5 34.5l-49 3l11 111l61 -3q93 -5 152.5 -57.5t62.5 -149.5l1 -28q6 -176 -113.5 -260.5t-344.5 -93.5z" />
    <glyph glyph-name="uni05D9" unicode="&#x5d9;" horiz-adv-x="259" 
d="M61 454l-12 117h144l12 -117v-156l-1 -63l-143 -25v244z" />
    <glyph glyph-name="uni05DA" unicode="&#x5da;" horiz-adv-x="512" 
d="M314 390q0 73 -68 73h-207v108h247q80 0 126 -45.5t46 -142.5v-583h-144v590z" />
    <glyph glyph-name="uni05DB" unicode="&#x5db;" horiz-adv-x="485" 
d="M29 108h160q58 0 85.5 38t27.5 102v75q0 64 -27.5 102t-85.5 38h-160v108h199q107 0 163 -68.5t56 -187.5v-59q0 -119 -56 -187.5t-163 -68.5h-199v108z" />
    <glyph glyph-name="uni05DC" unicode="&#x5dc;" horiz-adv-x="498" 
d="M466 571v-119l-180 -452h-144l179 463h-290v254h130v-146h305z" />
    <glyph glyph-name="uni05DD" unicode="&#x5dd;" horiz-adv-x="592" 
d="M495.5 525.5q46.5 -45.5 46.5 -142.5v-383h-145h-314h-30v571h144h172q80 0 126.5 -45.5zM397 108v282q0 73 -67 73h-133v-355h200z" />
    <glyph glyph-name="uni05DE" unicode="&#x5de;" horiz-adv-x="642" 
d="M538.5 66.5q-64.5 -79.5 -181.5 -79.5q-42 0 -92 12l13 108q37 -8 62 -8q68 0 97 45.5t29 134.5q0 99 -27.5 143.5t-84.5 44.5q-40 0 -67.5 -24t-34.5 -65l-62 -378h-144l69 385l-80 186h150l40 -114q21 62 63 92.5t96 30.5q107 0 163 -73.5t56 -221.5
q0 -139 -64.5 -218.5z" />
    <glyph glyph-name="uni05DF" unicode="&#x5df;" horiz-adv-x="259" 
d="M61 454l-12 117h144l12 -117v-654h-144v654z" />
    <glyph glyph-name="uni05E0" unicode="&#x5e0;" horiz-adv-x="381" 
d="M39 108h146v289q0 36 -13.5 51t-41.5 19l-70 10l18 106l125 -16q61 -8 93.5 -52t32.5 -114v-401h-290v108z" />
    <glyph glyph-name="uni05E1" unicode="&#x5e1;" horiz-adv-x="605" 
d="M447 75.5q-116 -78.5 -338 -85.5l-55 473l-14 108h307q98 0 152 -55.5t57 -152.5l1 -33q6 -176 -110 -254.5zM345.5 147.5q39.5 24.5 55 69t13.5 116.5v30q0 46 -21 73t-57 27h-138l37 -345q71 5 110.5 29.5z" />
    <glyph glyph-name="uni05E2" unicode="&#x5e2;" horiz-adv-x="576" 
d="M534 571q-1 -199 -15.5 -300.5t-76.5 -171t-200 -96.5l-214 -42l-20 113l159 30l-115 467h144l101 -435q45 22 65 67t24.5 109t4.5 194v65h143z" />
    <glyph glyph-name="uni05E3" unicode="&#x5e3;" horiz-adv-x="564" 
d="M457 503q53 -68 53 -187v-516h-144v523q0 64 -25 102t-79 38h-76l-12 -67q-2 -22 -2 -32q0 -30 10.5 -47.5t37.5 -20.5l-26 -87q-157 4 -157 135q0 22 7 59l37 168h220q103 0 156 -68z" />
    <glyph glyph-name="uni05E4" unicode="&#x5e4;" horiz-adv-x="557" 
d="M53 108h202q58 0 90.5 37.5t32.5 103.5v74q0 63 -28.5 101.5t-83.5 38.5h-72l-18 -85q-3 -13 -3 -25q0 -25 15 -38.5t49 -20.5l-23 -90q-89 2 -129 40t-40 103q0 24 4 44l40 180h211q104 0 163 -69t59 -186v-60q0 -120 -63 -188t-170 -68h-236v108z" />
    <glyph glyph-name="uni05E5" unicode="&#x5e5;" horiz-adv-x="533" 
d="M313 114l99 -314h-138l-241 771h137l88 -279l117 279h137z" />
    <glyph glyph-name="uni05E6" unicode="&#x5e6;" horiz-adv-x="559" 
d="M376 234l132 -234h-145h-333v108h272l-261 463h145l113 -201l82 201h142z" />
    <glyph glyph-name="uni05E7" unicode="&#x5e7;" horiz-adv-x="590" 
d="M245 107q68 6 101 46t40 136l13 174h-348v108h503l-5 -93l-11 -151q-16 -325 -282 -328zM43 279l20 69h125v-548h-145v479z" />
    <glyph glyph-name="uni05E8" unicode="&#x5e8;" horiz-adv-x="488" 
d="M290 390q0 73 -67 73h-195v108h234q80 0 126.5 -45.5t46.5 -142.5v-383h-145v390z" />
    <glyph glyph-name="uni05E9" unicode="&#x5e9;" horiz-adv-x="678" 
d="M521 94.5q-121 -104.5 -375 -104.5h-31l-75 581h137l29 -247q40 20 54 60t13 120v66h137v-63q-2 -110 -44 -178.5t-148 -104.5l14 -115q143 9 204 82.5t60 204.5l-2 175h145l1 -167q2 -205 -119 -309.5z" />
    <glyph glyph-name="uni05EA" unicode="&#x5ea;" horiz-adv-x="635" 
d="M18 81q38 4 57 15t26 30.5t6 55.5v389h303q80 0 126 -45.5t46 -142.5v-383h-144v390q0 73 -68 73h-118v-262q0 -76 -23.5 -121t-71 -67.5t-127.5 -29.5z" />
    <glyph glyph-name="uni05F3" unicode="&#x5f3;" horiz-adv-x="270" 
d="M50 523l88 180l92 -42l-107 -170z" />
    <glyph glyph-name="uni05F4" unicode="&#x5f4;" horiz-adv-x="455" 
d="M50 523l88 180l92 -42l-107 -170zM225 523l87 180l92 -42l-107 -170z" />
    <glyph glyph-name="uni1E06" unicode="&#x1e06;" horiz-adv-x="603" 
d="M79 653h219q238 0 238 -162q0 -46 -24 -86t-64 -55v-4q55 -14 88 -52.5t33 -101.5q0 -95 -70 -143.5t-183 -48.5h-237v653zM290 389q57 0 84.5 21.5t27.5 60.5q0 40 -27 58t-84 18h-75v-158h74zM304 106q131 0 131 95q0 45 -32.5 65.5t-98.5 20.5h-88v-181h88zM167 -98
h292v-88h-292v88z" />
    <glyph glyph-name="uni1E07" unicode="&#x1e07;" horiz-adv-x="570" 
d="M253.5 4.5q-33.5 16.5 -63.5 48.5h-4l-11 -53h-107v703h136v-175l-3 -78q30 26 64.5 41.5t69.5 15.5q90 0 142.5 -68t52.5 -183q0 -82 -29 -143t-77 -93t-103 -32q-34 0 -67.5 16.5zM362 139q28 39 28 115q0 141 -93 141q-46 0 -93 -48v-212q39 -35 86 -35q44 0 72 39z
M141 -98h292v-88h-292v88z" />
    <glyph glyph-name="uni1E0C" unicode="&#x1e0c;" horiz-adv-x="632" 
d="M79 653h181q154 0 239.5 -81t85.5 -243t-84.5 -245.5t-232.5 -83.5h-189v653zM252 111q192 0 192 218q0 113 -49.5 163t-142.5 50h-36v-431h36zM256.5 -202.5q-21.5 20.5 -21.5 52.5t21.5 52.5t55.5 20.5t55.5 -20.5t21.5 -52.5t-21.5 -52.5t-55.5 -20.5t-55.5 20.5z" />
    <glyph glyph-name="uni1E0D" unicode="&#x1e0d;" horiz-adv-x="570" 
d="M95.5 57q-54.5 69 -54.5 190q0 78 29 137t76.5 91t100.5 32q39 0 67 -13t57 -40l-5 77v172h137v-703h-112l-10 51h-3q-28 -28 -63.5 -45.5t-71.5 -17.5q-93 0 -147.5 69zM325 111.5q21 11.5 41 36.5v212q-38 35 -88 35q-41 0 -69 -38t-28 -108q0 -74 25 -111.5t72 -37.5
q26 0 47 11.5zM242.5 -202.5q-21.5 20.5 -21.5 52.5t21.5 52.5t55.5 20.5t55.5 -20.5t21.5 -52.5t-21.5 -52.5t-55.5 -20.5t-55.5 20.5z" />
    <glyph glyph-name="uni1E0E" unicode="&#x1e0e;" horiz-adv-x="632" 
d="M79 653h181q154 0 239.5 -81t85.5 -243t-84.5 -245.5t-232.5 -83.5h-189v653zM252 111q192 0 192 218q0 113 -49.5 163t-142.5 50h-36v-431h36zM166 -98h292v-88h-292v88z" />
    <glyph glyph-name="uni1E0F" unicode="&#x1e0f;" horiz-adv-x="570" 
d="M95.5 57q-54.5 69 -54.5 190q0 78 29 137t76.5 91t100.5 32q39 0 67 -13t57 -40l-5 77v172h137v-703h-112l-10 51h-3q-28 -28 -63.5 -45.5t-71.5 -17.5q-93 0 -147.5 69zM325 111.5q21 11.5 41 36.5v212q-38 35 -88 35q-41 0 -69 -38t-28 -108q0 -74 25 -111.5t72 -37.5
q26 0 47 11.5zM152 -98h292v-88h-292v88z" />
    <glyph glyph-name="uni1E20" unicode="&#x1e20;" horiz-adv-x="635" 
d="M200.5 27q-71.5 39 -112.5 114.5t-41 181.5q0 105 42 182.5t113.5 118.5t159.5 41q119 0 203 -84l-72 -88q-28 26 -57.5 39.5t-68.5 13.5q-81 0 -130 -58.5t-49 -159.5q0 -106 48 -163.5t141 -57.5q22 0 43 6t34 16v122h-113v112h235v-296q-36 -35 -92 -57t-121 -22
q-91 0 -162.5 39zM216 812h298v-88h-298v88z" />
    <glyph glyph-name="uni1E21" unicode="&#x1e21;" horiz-adv-x="530" 
d="M93.5 -181q-57.5 32 -57.5 94t71 102v4q-45 29 -45 84q0 26 15.5 51t39.5 41v4q-29 20 -47.5 54t-18.5 75q0 56 27.5 96.5t73.5 61.5t100 21q38 0 76 -12h179v-100h-83q9 -12 15 -31.5t6 -39.5q0 -81 -54 -124t-139 -43q-31 0 -62 10q-10 -9 -15 -17.5t-5 -22.5
q0 -19 17.5 -29t58.5 -10h83q92 0 139 -30t47 -95q0 -50 -33.5 -90.5t-95 -63t-143.5 -22.5q-92 0 -149.5 32zM305.5 263q20.5 23 20.5 65q0 41 -20.5 63.5t-53.5 22.5t-53 -22.5t-20 -63.5t20.5 -64.5t52.5 -23.5q33 0 53.5 23zM350 -107.5q34 19.5 34 47.5q0 24 -19 33
t-60 9h-57q-44 0 -68 7q-31 -25 -31 -54q0 -30 31 -46t84 -16q52 0 86 19.5zM126 681h292v-88h-292v88z" />
    <glyph glyph-name="uni1E24" unicode="&#x1e24;" horiz-adv-x="670" 
d="M79 653h137v-255h238v255h137v-653h-137v278h-238v-278h-137v653zM278.5 -202.5q-21.5 20.5 -21.5 52.5t21.5 52.5t55.5 20.5t55.5 -20.5t21.5 -52.5t-21.5 -52.5t-55.5 -20.5t-55.5 20.5z" />
    <glyph glyph-name="uni1E25" unicode="&#x1e25;" horiz-adv-x="567" 
d="M68 703h136v-175l-6 -92q35 33 72 52t83 19q78 0 115.5 -51.5t37.5 -147.5v-308h-137v291q0 55 -15.5 77t-50.5 22q-28 0 -49 -12t-50 -40v-338h-136v703zM239.5 -202.5q-21.5 20.5 -21.5 52.5t21.5 52.5t55.5 20.5t55.5 -20.5t21.5 -52.5t-21.5 -52.5t-55.5 -20.5
t-55.5 20.5z" />
    <glyph glyph-name="uni1E2A" unicode="&#x1e2a;" horiz-adv-x="670" 
d="M79 653h137v-255h238v255h137v-653h-137v278h-238v-278h-137v653zM211 -189.5q-42 43.5 -44 112.5l78 13q6 -36 28 -59.5t61 -23.5t61 23.5t28 59.5l78 -13q-2 -69 -44 -112.5t-123 -43.5t-123 43.5z" />
    <glyph glyph-name="uni1E2B" unicode="&#x1e2b;" horiz-adv-x="567" 
d="M68 703h136v-175l-6 -92q35 33 72 52t83 19q78 0 115.5 -51.5t37.5 -147.5v-308h-137v291q0 55 -15.5 77t-50.5 22q-28 0 -49 -12t-50 -40v-338h-136v703zM172 -189.5q-42 43.5 -44 112.5l78 13q6 -36 28 -59.5t61 -23.5t61 23.5t28 59.5l78 -13q-2 -69 -44 -112.5
t-123 -43.5t-123 43.5z" />
    <glyph glyph-name="uni1E32" unicode="&#x1e32;" horiz-adv-x="609" 
d="M79 653h137v-277h4l207 277h151l-199 -259l234 -394h-150l-165 286l-82 -106v-180h-137v653zM276.5 -202.5q-21.5 20.5 -21.5 52.5t21.5 52.5t55.5 20.5t55.5 -20.5t21.5 -52.5t-21.5 -52.5t-55.5 -20.5t-55.5 20.5z" />
    <glyph glyph-name="uni1E33" unicode="&#x1e33;" horiz-adv-x="539" 
d="M68 703h133v-415h4l165 207h149l-172 -203l186 -292h-148l-116 200l-68 -77v-123h-133v703zM235.5 -202.5q-21.5 20.5 -21.5 52.5t21.5 52.5t55.5 20.5t55.5 -20.5t21.5 -52.5t-21.5 -52.5t-55.5 -20.5t-55.5 20.5z" />
    <glyph glyph-name="uni1E34" unicode="&#x1e34;" horiz-adv-x="609" 
d="M79 653h137v-277h4l207 277h151l-199 -259l234 -394h-150l-165 286l-82 -106v-180h-137v653zM186 -98h292v-88h-292v88z" />
    <glyph glyph-name="uni1E35" unicode="&#x1e35;" horiz-adv-x="539" 
d="M68 703h133v-415h4l165 207h149l-172 -203l186 -292h-148l-116 200l-68 -77v-123h-133v703zM145 -98h292v-88h-292v88z" />
    <glyph glyph-name="uni1E62" unicode="&#x1e62;" horiz-adv-x="552" 
d="M147 12.5q-63 24.5 -111 70.5l79 94q36 -32 79.5 -51t84.5 -19q48 0 73.5 18.5t25.5 51.5q0 21 -11.5 35t-29 23t-56.5 25l-86 37q-58 24 -95 67.5t-37 109.5q0 53 29.5 96.5t81.5 69t117 25.5q57 0 112 -22.5t95 -62.5l-69 -87q-34 27 -67 40t-71 13q-41 0 -65 -17
t-24 -47q0 -21 12.5 -35t31 -23t57.5 -25l84 -34q63 -26 97 -68.5t34 -108.5q0 -55 -29 -100.5t-84 -72.5t-129 -27q-66 0 -129 24.5zM223.5 -202.5q-21.5 20.5 -21.5 52.5t21.5 52.5t55.5 20.5t55.5 -20.5t21.5 -52.5t-21.5 -52.5t-55.5 -20.5t-55.5 20.5z" />
    <glyph glyph-name="uni1E63" unicode="&#x1e63;" horiz-adv-x="439" 
d="M111.5 7q-51.5 19 -89.5 50l62 86q35 -27 66.5 -40t64.5 -13q34 0 51 12.5t17 35.5q0 16 -13.5 28t-38.5 22.5t-50 20.5q-59 23 -96.5 56.5t-37.5 88.5q0 68 51 110.5t135 42.5q92 0 171 -62l-61 -82q-59 42 -106 42q-31 0 -46.5 -12t-15.5 -32t20 -32.5t46 -21.5t34 -12
q63 -23 99.5 -55.5t36.5 -93.5q0 -45 -23.5 -80.5t-68.5 -56.5t-108 -21q-48 0 -99.5 19zM171.5 -202.5q-21.5 20.5 -21.5 52.5t21.5 52.5t55.5 20.5t55.5 -20.5t21.5 -52.5t-21.5 -52.5t-55.5 -20.5t-55.5 20.5z" />
    <glyph glyph-name="uni1E6C" unicode="&#x1e6c;" horiz-adv-x="553" 
d="M208 538h-182v115h502v-115h-183v-538h-137v538zM221.5 -202.5q-21.5 20.5 -21.5 52.5t21.5 52.5t55.5 20.5t55.5 -20.5t21.5 -52.5t-21.5 -52.5t-55.5 -20.5t-55.5 20.5z" />
    <glyph glyph-name="uni1E6D" unicode="&#x1e6d;" horiz-adv-x="376" 
d="M127 37.5q-40 49.5 -40 138.5v211h-69v102l76 6l16 132h113v-132h121v-108h-121v-210q0 -81 66 -81q21 0 49 10l22 -100q-54 -18 -107 -18q-86 0 -126 49.5zM165.5 -202.5q-21.5 20.5 -21.5 52.5t21.5 52.5t55.5 20.5t55.5 -20.5t21.5 -52.5t-21.5 -52.5t-55.5 -20.5
t-55.5 20.5z" />
    <glyph glyph-name="uni1E6E" unicode="&#x1e6e;" horiz-adv-x="553" 
d="M208 538h-182v115h502v-115h-183v-538h-137v538zM131 -98h292v-88h-292v88z" />
    <glyph glyph-name="uni1E6F" unicode="&#x1e6f;" horiz-adv-x="376" 
d="M127 37.5q-40 49.5 -40 138.5v211h-69v102l76 6l16 132h113v-132h121v-108h-121v-210q0 -81 66 -81q21 0 49 10l22 -100q-54 -18 -107 -18q-86 0 -126 49.5zM75 -98h292v-88h-292v88z" />
    <glyph glyph-name="uni1E7E" unicode="&#x1e7e;" horiz-adv-x="550" 
d="M-6 653h145l83 -312q15 -54 27 -105q32 -126 27 -106h4q5 18 34 131l20 80l82 312h140l-199 -653h-164zM217.5 -202.5q-21.5 20.5 -21.5 52.5t21.5 52.5t55.5 20.5t55.5 -20.5t21.5 -52.5t-21.5 -52.5t-55.5 -20.5t-55.5 20.5z" />
    <glyph glyph-name="uni1E7F" unicode="&#x1e7f;" horiz-adv-x="514" 
d="M12 495h138l69 -241l39 -151h4l40 151l69 241h131l-164 -495h-157zM203.5 -202.5q-21.5 20.5 -21.5 52.5t21.5 52.5t55.5 20.5t55.5 -20.5t21.5 -52.5t-21.5 -52.5t-55.5 -20.5t-55.5 20.5z" />
    <glyph glyph-name="uni1E92" unicode="&#x1e92;" horiz-adv-x="541" 
d="M37 83l298 455h-270v115h439v-83l-298 -455h300v-115h-469v83zM226.5 -202.5q-21.5 20.5 -21.5 52.5t21.5 52.5t55.5 20.5t55.5 -20.5t21.5 -52.5t-21.5 -52.5t-55.5 -20.5t-55.5 20.5z" />
    <glyph glyph-name="uni1E93" unicode="&#x1e93;" horiz-adv-x="455" 
d="M37 73l216 314h-192v108h362v-73l-216 -314h223v-108h-393v73zM185.5 -202.5q-21.5 20.5 -21.5 52.5t21.5 52.5t55.5 20.5t55.5 -20.5t21.5 -52.5t-21.5 -52.5t-55.5 -20.5t-55.5 20.5z" />
    <glyph glyph-name="uni1E94" unicode="&#x1e94;" horiz-adv-x="541" 
d="M37 83l298 455h-270v115h439v-83l-298 -455h300v-115h-469v83zM136 -98h292v-88h-292v88z" />
    <glyph glyph-name="uni1E95" unicode="&#x1e95;" horiz-adv-x="455" 
d="M37 73l216 314h-192v108h362v-73l-216 -314h223v-108h-393v73zM95 -98h292v-88h-292v88z" />
    <glyph glyph-name="uni1E96" unicode="&#x1e96;" horiz-adv-x="567" 
d="M68 703h136v-175l-6 -92q35 33 72 52t83 19q78 0 115.5 -51.5t37.5 -147.5v-308h-137v291q0 55 -15.5 77t-50.5 22q-28 0 -49 -12t-50 -40v-338h-136v703zM149 -98h292v-88h-292v88z" />
    <glyph glyph-name="uni1EA0" unicode="&#x1ea0;" horiz-adv-x="568" 
d="M384 163h-205l-44 -163h-140l208 653h163l207 -653h-145zM356 269l-18 67q-12 44 -36 138l-19 74h-4q-30 -129 -53 -212l-18 -67h148zM225.5 -202.5q-21.5 20.5 -21.5 52.5t21.5 52.5t55.5 20.5t55.5 -20.5t21.5 -52.5t-21.5 -52.5t-55.5 -20.5t-55.5 20.5z" />
    <glyph glyph-name="uni1EA1" unicode="&#x1ea1;" horiz-adv-x="524" 
d="M84.5 30q-40.5 42 -40.5 106q0 79 67 122.5t215 59.5q-3 80 -82 80q-31 0 -63 -12t-70 -34l-49 90q105 65 208 65q95 0 144 -55.5t49 -165.5v-286h-112l-10 52h-3q-74 -64 -147 -64q-66 0 -106.5 42zM281.5 105.5q20.5 11.5 44.5 34.5v95q-81 -11 -116 -33t-35 -55
q0 -26 16 -39.5t45 -13.5q25 0 45.5 11.5zM200.5 -202.5q-21.5 20.5 -21.5 52.5t21.5 52.5t55.5 20.5t55.5 -20.5t21.5 -52.5t-21.5 -52.5t-55.5 -20.5t-55.5 20.5z" />
    <glyph glyph-name="uni1EB8" unicode="&#x1eb8;" horiz-adv-x="545" 
d="M79 653h404v-115h-267v-143h227v-115h-227v-165h277v-115h-414v653zM234.5 -202.5q-21.5 20.5 -21.5 52.5t21.5 52.5t55.5 20.5t55.5 -20.5t21.5 -52.5t-21.5 -52.5t-55.5 -20.5t-55.5 20.5z" />
    <glyph glyph-name="uni1EB9" unicode="&#x1eb9;" horiz-adv-x="514" 
d="M472 208h-306q10 -59 48.5 -87t89.5 -28q53 0 110 33l45 -83q-37 -26 -82.5 -40.5t-90.5 -14.5q-70 0 -126.5 31t-89 90t-32.5 138q0 78 32.5 137t85.5 91t113 32q101 0 155 -65.5t54 -171.5q0 -38 -6 -62zM361 299q0 48 -22 75.5t-67 27.5q-37 0 -65.5 -25.5
t-38.5 -77.5h193zM209.5 -202.5q-21.5 20.5 -21.5 52.5t21.5 52.5t55.5 20.5t55.5 -20.5t21.5 -52.5t-21.5 -52.5t-55.5 -20.5t-55.5 20.5z" />
    <glyph glyph-name="uni1ECC" unicode="&#x1ecc;" horiz-adv-x="681" 
d="M187.5 29q-66.5 41 -103.5 118.5t-37 181.5q0 105 37 180.5t103.5 115.5t153.5 40t153.5 -40t103 -116t36.5 -180t-36.5 -181.5t-103 -118.5t-153.5 -41t-153.5 41zM452.5 167q41.5 60 41.5 162q0 101 -41.5 159t-111.5 58q-71 0 -112 -57.5t-41 -159.5t41.5 -162
t111.5 -60t111.5 60zM285.5 -202.5q-21.5 20.5 -21.5 52.5t21.5 52.5t55.5 20.5t55.5 -20.5t21.5 -52.5t-21.5 -52.5t-55.5 -20.5t-55.5 20.5z" />
    <glyph glyph-name="uni1ECD" unicode="&#x1ecd;" horiz-adv-x="553" 
d="M158.5 19q-54.5 31 -87.5 90t-33 138q0 80 33 139t87.5 90t118.5 31q63 0 118 -31t88 -90.5t33 -138.5t-33 -138t-88 -90t-118 -31q-64 0 -118.5 31zM350 138.5q26 39.5 26 108.5t-26 109t-73 40q-48 0 -73.5 -40t-25.5 -109t25.5 -108.5t73.5 -39.5q47 0 73 39.5z
M221.5 -202.5q-21.5 20.5 -21.5 52.5t21.5 52.5t55.5 20.5t55.5 -20.5t21.5 -52.5t-21.5 -52.5t-55.5 -20.5t-55.5 20.5z" />
    <glyph glyph-name="uni200E" unicode="&#x200e;" horiz-adv-x="0" 
d="M14 792l63 66h-191v36h191l-63 63l25 27l105 -109l-105 -108z" />
    <glyph glyph-name="uni200F" unicode="&#x200f;" horiz-adv-x="0" 
d="M-144 875l105 109l25 -26l-63 -64h193v-36h-192l62 -66l-25 -24z" />
    <glyph glyph-name="uni2010" unicode="&#x2010;" horiz-adv-x="329" 
d="M43 302h243v-98h-243v98z" />
    <glyph glyph-name="endash" unicode="&#x2013;" horiz-adv-x="480" 
d="M43 297h394v-88h-394v88z" />
    <glyph glyph-name="emdash" unicode="&#x2014;" horiz-adv-x="800" 
d="M43 297h714v-88h-714v88z" />
    <glyph glyph-name="quoteleft" unicode="&#x2018;" horiz-adv-x="292" 
d="M196 481q21 -19 21 -50q0 -36 -20 -57t-53 -21q-43 0 -66 32.5t-23 91.5q0 140 137 208l31 -60q-45 -23 -66.5 -53t-21.5 -73q3 1 9 1q31 0 52 -19z" />
    <glyph glyph-name="quoteright" unicode="&#x2019;" horiz-adv-x="292" 
d="M214 665q23 -32 23 -92q0 -139 -136 -208l-31 60q45 23 66.5 53t21.5 73q-3 -1 -10 -1q-31 0 -52 19.5t-21 50.5q0 35 20.5 56t52.5 21q43 0 66 -32z" />
    <glyph glyph-name="quotesinglbase" unicode="&#x201a;" horiz-adv-x="292" 
d="M214 135q23 -32 23 -92q0 -139 -136 -208l-31 60q45 23 66.5 53t21.5 73q-3 -1 -10 -1q-31 0 -52 19.5t-21 50.5q0 35 20.5 56t52.5 21q43 0 66 -32z" />
    <glyph glyph-name="quotedblleft" unicode="&#x201c;" horiz-adv-x="519" 
d="M196 481q21 -19 21 -50q0 -36 -20 -57t-53 -21q-43 0 -66 32.5t-23 91.5q0 140 137 208l31 -60q-45 -23 -66.5 -53t-21.5 -73q3 1 9 1q31 0 52 -19zM423 481q21 -19 21 -50q0 -36 -20 -57t-53 -21q-43 0 -66 32.5t-23 91.5q0 140 137 208l31 -60q-45 -23 -66.5 -53
t-21.5 -73q3 1 9 1q31 0 52 -19z" />
    <glyph glyph-name="quotedblright" unicode="&#x201d;" horiz-adv-x="519" 
d="M214 665q23 -32 23 -92q0 -139 -136 -208l-31 60q45 23 66.5 53t21.5 73q-3 -1 -10 -1q-31 0 -52 19.5t-21 50.5q0 35 20.5 56t52.5 21q43 0 66 -32zM441 665q23 -32 23 -92q0 -139 -136 -208l-31 60q45 23 66.5 53t21.5 73q-3 -1 -10 -1q-31 0 -52 19.5t-21 50.5
q0 35 20.5 56t52.5 21q43 0 66 -32z" />
    <glyph glyph-name="quotedblbase" unicode="&#x201e;" horiz-adv-x="519" 
d="M214 135q23 -32 23 -92q0 -139 -136 -208l-31 60q45 23 66.5 53t21.5 73q-3 -1 -10 -1q-31 0 -52 19.5t-21 50.5q0 35 20.5 56t52.5 21q43 0 66 -32zM441 135q23 -32 23 -92q0 -139 -136 -208l-31 60q45 23 66.5 53t21.5 73q-3 -1 -10 -1q-31 0 -52 19.5t-21 50.5
q0 35 20.5 56t52.5 21q43 0 66 -32z" />
    <glyph glyph-name="dagger" unicode="&#x2020;" horiz-adv-x="501" 
d="M204 447l-158 -8v110l158 -8l-8 171h110l-8 -171l158 8v-110l-158 8l8 -527h-110z" />
    <glyph glyph-name="daggerdbl" unicode="&#x2021;" horiz-adv-x="501" 
d="M204 91l-158 -8v110l158 -11l-8 134l8 134l-158 -11v110l158 -8l-8 171h110l-8 -171l158 8v-110l-158 11l8 -134l-8 -134l158 11v-110l-158 8l8 -171h-110z" />
    <glyph glyph-name="bullet" unicode="&#x2022;" horiz-adv-x="338" 
d="M77.5 166q-37.5 39 -37.5 97t37.5 97t91.5 39t91.5 -39t37.5 -97t-37.5 -97t-91.5 -39t-91.5 39z" />
    <glyph glyph-name="ellipsis" unicode="&#x2026;" horiz-adv-x="996" 
d="M106 13q-24 25 -24 63t24 63t60 25t60 -25t24 -63t-24 -63t-60 -25t-60 25zM440 13q-24 25 -24 63t24 63t60 25t60 -25t24 -63t-24 -63t-60 -25t-60 25zM774 13q-24 25 -24 63t24 63t60 25t60 -25t24 -63t-24 -63t-60 -25t-60 25z" />
    <glyph glyph-name="uni202D" unicode="&#x202d;" horiz-adv-x="0" 
d="M-57 792l63 66h-162v36h160l-61 63l26 27l104 -109l-104 -108zM41 792l82 83l-82 82l25 27l105 -109l-105 -108z" />
    <glyph glyph-name="uni202E" unicode="&#x202e;" horiz-adv-x="0" 
d="M-171 914l105 107l25 -26l-80 -81l80 -83l-25 -26zM-71 914l102 107l28 -26l-63 -66h161v-34h-161l63 -64l-28 -26z" />
    <glyph glyph-name="perthousand" unicode="&#x2030;" horiz-adv-x="1233" 
d="M86.5 316.5q-44.5 55.5 -44.5 152.5q0 96 44.5 151t116.5 55q71 0 115.5 -55t44.5 -151t-44.5 -152t-115.5 -56q-72 0 -116.5 55.5zM560 665h80l-354 -677h-80zM249.5 370q17.5 32 17.5 99t-17.5 98t-46.5 31t-47 -31t-18 -98t18 -99t47 -32t46.5 32zM540.5 44
q-44.5 56 -44.5 152t44.5 151t115.5 55q72 0 116.5 -55t44.5 -151q0 -97 -44.5 -152.5t-116.5 -55.5q-71 0 -115.5 56zM914.5 44q-44.5 56 -44.5 152t44.5 151t115.5 55q72 0 116.5 -55t44.5 -151q0 -97 -44.5 -152.5t-116.5 -55.5q-71 0 -115.5 56zM703 97q18 32 18 99
t-18 98t-47 31t-46.5 -31t-17.5 -98t17.5 -99t46.5 -32t47 32zM1077 97q18 32 18 99t-18 98t-47 31t-46.5 -31t-17.5 -98t17.5 -99t46.5 -32t47 32z" />
    <glyph glyph-name="guilsinglleft" unicode="&#x2039;" horiz-adv-x="289" 
d="M48 204v97l135 146l52 -42l-112 -153l112 -153l-52 -41z" />
    <glyph glyph-name="guilsinglright" unicode="&#x203a;" horiz-adv-x="289" 
d="M54 99l112 153l-112 153l52 42l135 -146v-97l-135 -146z" />
    <glyph glyph-name="fraction" unicode="&#x2044;" horiz-adv-x="95" 
d="M184 665h80l-354 -677h-80z" />
    <glyph glyph-name="uni20AA" unicode="&#x20aa;" horiz-adv-x="838" 
d="M60 571h330q79 0 123.5 -47.5t44.5 -145.5v-145h-107v152q0 39 -15 58.5t-48 19.5h-183v-463h-145v571zM273 364h107v-245q114 -1 172.5 33t78 93t18.5 152l-2 174h145l1 -174q1 -143 -47 -229.5t-153 -127t-279 -40.5h-41v364z" />
    <glyph glyph-name="Euro" unicode="&#x20ac;" 
d="M515 81q-74 -93 -181 -93q-95 0 -162 60t-88 171h-63v64l56 5q-1 9 -1 27t1 27h-56v64l64 5q22 112 91.5 174.5t169.5 62.5q45 0 87 -20.5t73 -57.5l-76 -74q-43 46 -89 46t-76.5 -33.5t-43.5 -96.5h221v-70h-229v-23q0 -20 1 -30h188v-70h-179q13 -60 43.5 -92.5
t75.5 -32.5q29 0 52.5 14.5t44.5 42.5z" />
    <glyph glyph-name="uni210A" unicode="&#x210a;" horiz-adv-x="579" 
d="M168 -184q-50 14 -91 41l46 90q66 -38 138 -38q102 0 110 88l3 67q-27 -24 -59 -38t-67 -14q-61 0 -107 30.5t-71 86t-25 127.5q0 73 30 130.5t78 89t102 31.5q38 0 69 -14t59 -44h4l10 46h110v-495q0 -95 -64 -146.5t-182 -51.5q-43 0 -93 14zM328.5 133.5
q20.5 11.5 42.5 38.5v188q-39 35 -88 35q-42 0 -70.5 -37t-28.5 -100q0 -64 26 -100t73 -36q25 0 45.5 11.5z" />
    <glyph glyph-name="trademark" unicode="&#x2122;" horiz-adv-x="675" 
d="M93 594h-89v82h268v-82h-89v-231h-90v231zM315 676h103l40 -101l23 -69h4l23 69l40 101h103v-313h-83v102l10 114h-4l-59 -170h-64l-59 170h-4l10 -114v-102h-83v313z" />
    <glyph glyph-name="estimated" unicode="&#x212e;" horiz-adv-x="800" 
d="M223.5 34q-81.5 45 -129.5 122.5t-48 168.5t48 168.5t129.5 122.5t177.5 45t177.5 -45t129 -122t47.5 -169v-9h-575q-4 0 -4 -4v-183q0 -9 8 -21q41 -47 98 -73t120 -26q67 0 126.5 29.5t101.5 81.5h52q-50 -61 -123.5 -96t-157.5 -35q-96 0 -177.5 45zM621 335q5 0 5 5
v184q0 11 -9 22q-43 45 -98.5 70t-116.5 25q-63 0 -119 -26t-98 -72q-9 -11 -9 -23v-180q0 -5 4 -5h441z" />
    <glyph glyph-name="partialdiff" unicode="&#x2202;" horiz-adv-x="569" 
d="M464 589.5q59 -75.5 59 -213.5q0 -115 -35.5 -203t-100 -136.5t-146.5 -48.5q-53 0 -97.5 24t-70.5 68.5t-26 103.5q0 68 27 120t76 80.5t112 28.5q36 0 70.5 -16.5t60.5 -46.5v22q0 92 -27.5 137t-86.5 45q-56 0 -105 -46l-59 84q83 73 178 73q112 0 171 -75.5z
M333.5 135q33.5 36 48.5 112q-21 31 -48 46t-56 15q-49 0 -77 -29.5t-28 -86.5q0 -44 24 -68.5t59 -24.5q44 0 77.5 36z" />
    <glyph glyph-name="product" unicode="&#x220f;" horiz-adv-x="704" 
d="M81 636h542v-756h-137v636h-268v-636h-137v756z" />
    <glyph glyph-name="summation" unicode="&#x2211;" horiz-adv-x="530" 
d="M26 -39l211 296l-201 297v82h461v-115h-294v-4l174 -259l-182 -259v-4h326v-115h-495v81z" />
    <glyph glyph-name="minus" unicode="&#x2212;" 
d="M34 379h455v-97h-455v97z" />
    <glyph glyph-name="uni2215" unicode="&#x2215;" horiz-adv-x="95" 
d="M184 665h80l-354 -677h-80z" />
    <glyph glyph-name="uni2219" unicode="&#x2219;" horiz-adv-x="525" 
d="M201 266q-24 25 -24 63t24 63t60 25t60 -25t24 -63t-24 -63t-60 -25t-60 25z" />
    <glyph glyph-name="radical" unicode="&#x221a;" horiz-adv-x="583" 
d="M128 331l-74 -30l-24 65l167 69l102 -303q12 -46 20 -79h4q5 31 14 79l161 688h92l-217 -903h-95z" />
    <glyph glyph-name="infinity" unicode="&#x221e;" horiz-adv-x="809" 
d="M469 147q-47 28 -95 90h-4q-73 -94 -166 -94q-45 0 -83.5 24t-60.5 64.5t-22 86.5q0 94 51 147.5t134 53.5q95 0 165 -95h4q41 53 88 82t104 29q52 0 95 -25t67.5 -69.5t24.5 -100.5q0 -68 -25.5 -118t-69.5 -76.5t-98 -26.5q-62 0 -109 28zM645.5 271.5
q25.5 26.5 25.5 64.5q0 45 -27 72t-73 27q-71 0 -133 -86q38 -52 69.5 -78t70.5 -26q42 0 67.5 26.5zM324 313q-25 37 -53.5 58t-58.5 21q-35 0 -54.5 -19t-19.5 -51q0 -33 21.5 -56t57.5 -23q59 0 107 70z" />
    <glyph glyph-name="integral" unicode="&#x222b;" horiz-adv-x="381" 
d="M44 -151l13 100q13 -4 36 -4q38 0 51 30.5t13 106.5q0 51 -5 102.5t-14 122.5q-10 77 -15 131t-5 109q0 118 38 181t142 63q30 0 56 -7l-14 -100q-12 4 -35 4q-38 0 -51 -31t-13 -106q0 -81 19 -224q10 -90 14.5 -138.5t4.5 -102.5q0 -118 -38 -181t-142 -63q-29 0 -55 7
z" />
    <glyph glyph-name="approxequal" unicode="&#x2248;" 
d="M294.5 369.5q-22.5 11.5 -51.5 32.5q-23 17 -37.5 25t-31.5 8q-40 0 -72 -58l-72 54q64 101 146 101q30 0 52.5 -11.5t51.5 -32.5q23 -17 37.5 -25t31.5 -8q40 0 73 58l71 -54q-65 -101 -146 -101q-30 0 -52.5 11.5zM294.5 139.5q-22.5 11.5 -51.5 32.5q-23 17 -37.5 25
t-31.5 8q-40 0 -72 -58l-72 54q64 101 146 101q30 0 52.5 -11.5t51.5 -32.5q23 -17 37.5 -25t31.5 -8q40 0 73 58l71 -54q-65 -101 -146 -101q-30 0 -52.5 11.5z" />
    <glyph glyph-name="notequal" unicode="&#x2260;" 
d="M126 167h-92v97h146l76 133h-222v97h276l72 122h88l-72 -122h91v-97h-145l-76 -133h221v-97h-275l-73 -123h-88z" />
    <glyph glyph-name="lessequal" unicode="&#x2264;" 
d="M34 298v114l455 144v-113l-178 -51l-138 -35v-4l138 -36l178 -50v-113zM34 97h455v-97h-455v97z" />
    <glyph glyph-name="greaterequal" unicode="&#x2265;" 
d="M34 267l179 50l138 36v4l-138 35l-179 51v113l455 -144v-114l-455 -144v113zM34 97h455v-97h-455v97z" />
    <glyph glyph-name="lozenge" unicode="&#x25ca;" horiz-adv-x="543" 
d="M53 330l163 340h112l163 -340l-163 -340h-112zM274 105l55 122l48 103l-48 103l-55 123h-4l-55 -123l-49 -103l49 -103l55 -122h4z" />
    <glyph glyph-name="uni25CC" unicode="&#x25cc;" horiz-adv-x="600" 
d="M361 403q-11 -8 -26 -8q-16 0 -27.5 12t-11.5 31t11.5 30t27.5 11q6 0 8 -1q11 9 25 9q18 0 30 -11.5t12 -30.5q0 -20 -11.5 -31.5t-30.5 -11.5q-5 0 -7 1zM213 469q12 -11 12 -31q0 -19 -11.5 -30.5t-29.5 -11.5q-17 0 -29 11.5t-12 30.5q0 20 11.5 31t29.5 11
q17 0 29 -11zM425 346.5q-12 11.5 -12 30.5t12 30.5t29 11.5q18 0 29.5 -11t11.5 -31q0 -19 -11 -30.5t-30 -11.5q-17 0 -29 11.5zM78 326q-12 12 -12 32q0 19 11.5 30t28.5 11q19 0 30 -10.5t11 -30.5t-11 -32t-30 -12q-16 0 -28 12zM108.5 216.5q-11.5 -11.5 -30.5 -11.5
q-16 0 -28 12t-12 31t11.5 30t28.5 11q18 0 30 -11t12 -30q0 -20 -11.5 -31.5zM530 278q12 -11 12 -30q0 -20 -11.5 -31.5t-29.5 -11.5t-30 11.5t-12 31.5q0 19 12 30t30 11q17 0 29 -11zM135.5 169.5q11.5 -11.5 11.5 -31.5q0 -19 -11 -30.5t-30 -11.5q-16 0 -28 11.5
t-12 30.5q0 20 12 31.5t28 11.5q18 0 29.5 -11.5zM503 169.5q12 -11.5 12 -31.5q0 -19 -11.5 -30.5t-29.5 -11.5q-17 0 -29.5 11.5t-12.5 30.5t12.5 31t29.5 12t29 -11.5zM213 87.5q12 -10.5 12 -29.5q0 -21 -11.5 -32.5t-29.5 -11.5q-17 0 -29 12t-12 32q0 19 12 29.5
t29 10.5t29 -10.5zM424 87.5q12 -10.5 12 -29.5q0 -21 -11 -32.5t-31 -11.5q-17 0 -28.5 12t-11.5 32q0 19 11.5 29.5t28.5 10.5q18 0 30 -10.5zM319.5 60.5q11.5 -10.5 11.5 -29.5q0 -21 -11.5 -32.5t-30.5 -11.5q-16 0 -27.5 12t-11.5 32q0 19 11 29.5t28 10.5
q19 0 30.5 -10.5z" />
    <glyph glyph-name="dotlessj" unicode="&#xf6be;" horiz-adv-x="269" 
d="M-45 -186l24 101q25 -7 41 -7q30 0 42 19.5t12 62.5l1 505h137l-2 -501q0 -88 -39.5 -141t-130.5 -53q-50 0 -85 14z" />
    <glyph glyph-name="uniFB2A" unicode="&#xfb2a;" horiz-adv-x="678" 
d="M521 94.5q-121 -104.5 -375 -104.5h-31l-75 581h137l29 -247q40 20 54 60t13 120v66h137v-63q-2 -110 -44 -178.5t-148 -104.5l14 -115q143 9 204 82.5t60 204.5l-2 175h145l1 -167q2 -205 -119 -309.5zM590 680.5q9 -10.5 9 -24.5q0 -15 -9 -25.5t-24 -10.5t-24.5 10.5
t-9.5 25.5q0 14 9.5 24.5t24.5 10.5t24 -10.5z" />
    <glyph glyph-name="uniFB2B" unicode="&#xfb2b;" horiz-adv-x="678" 
d="M521 94.5q-121 -104.5 -375 -104.5h-31l-75 581h137l29 -247q40 20 54 60t13 120v66h137v-63q-2 -110 -44 -178.5t-148 -104.5l14 -115q143 9 204 82.5t60 204.5l-2 175h145l1 -167q2 -205 -119 -309.5zM120 680.5q9 -10.5 9 -24.5q0 -15 -9 -25.5t-24 -10.5t-24.5 10.5
t-9.5 25.5q0 14 9.5 24.5t24.5 10.5t24 -10.5z" />
    <glyph glyph-name="uniFB2C" unicode="&#xfb2c;" horiz-adv-x="678" 
d="M521 94.5q-121 -104.5 -375 -104.5h-31l-75 581h137l29 -247q40 20 54 60t13 120v66h137v-63q-2 -110 -44 -178.5t-148 -104.5l14 -115q143 9 204 82.5t60 204.5l-2 175h145l1 -167q2 -205 -119 -309.5zM401 276.5q9 -10.5 9 -24.5q0 -15 -9 -25.5t-24 -10.5t-24.5 10.5
t-9.5 25.5q0 13 10 24t24 11q15 0 24 -10.5zM590 680.5q9 -10.5 9 -24.5q0 -15 -9 -25.5t-24 -10.5t-24.5 10.5t-9.5 25.5q0 14 9.5 24.5t24.5 10.5t24 -10.5z" />
    <glyph glyph-name="uniFB2D" unicode="&#xfb2d;" horiz-adv-x="678" 
d="M521 94.5q-121 -104.5 -375 -104.5h-31l-75 581h137l29 -247q40 20 54 60t13 120v66h137v-63q-2 -110 -44 -178.5t-148 -104.5l14 -115q143 9 204 82.5t60 204.5l-2 175h145l1 -167q2 -205 -119 -309.5zM401 276.5q9 -10.5 9 -24.5q0 -15 -9 -25.5t-24 -10.5t-24.5 10.5
t-9.5 25.5q0 13 10 24t24 11q15 0 24 -10.5zM120 680.5q9 -10.5 9 -24.5q0 -15 -9 -25.5t-24 -10.5t-24.5 10.5t-9.5 25.5q0 14 9.5 24.5t24.5 10.5t24 -10.5z" />
    <glyph glyph-name="uniFB2E" unicode="&#xfb2e;" horiz-adv-x="617" 
d="M435 0l-188 291l-89 -291h-137l111 343l31 77l-93 151h145l80 -130l72 -109l27 91l40 148h137l-120 -364l138 -207h-154zM400 -94h-166v39h166v-39z" />
    <glyph glyph-name="uniFB2F" unicode="&#xfb2f;" horiz-adv-x="617" 
d="M435 0l-188 291l-89 -291h-137l111 343l31 77l-93 151h145l80 -130l72 -109l27 91l40 148h137l-120 -364l138 -207h-154zM400 -94h-67l6 -100h-44l5 100h-66v39h166v-39z" />
    <glyph glyph-name="uniFB30" unicode="&#xfb30;" horiz-adv-x="617" 
d="M435 0l-188 291l-89 -291h-137l111 343l31 77l-93 151h145l80 -130l72 -109l27 91l40 148h137l-120 -364l138 -207h-154zM306 116.5q9 -10.5 9 -24.5q0 -15 -9 -25.5t-24 -10.5t-24.5 10.5t-9.5 25.5q0 13 10 24t24 11q15 0 24 -10.5z" />
    <glyph glyph-name="uniFB31" unicode="&#xfb31;" horiz-adv-x="543" 
d="M513 108v-108h-211h-264v108h264v282q0 73 -68 73h-196v108h236q80 0 126 -45.5t46 -142.5v-275h67zM190 321.5q9 -10.5 9 -24.5q0 -15 -9 -25.5t-24 -10.5t-24.5 10.5t-9.5 25.5q0 13 10 24t24 11q15 0 24 -10.5z" />
    <glyph glyph-name="uniFB32" unicode="&#xfb32;" horiz-adv-x="424" 
d="M246 0l-18 107q-28 -45 -65.5 -76t-92.5 -50l-53 114q140 44 190 140v163q0 36 -11 51t-37 19l-63 9l18 106l118 -16q61 -8 90 -45.5t29 -107.5v-190l32 -224h-137zM123 336.5q9 -10.5 9 -24.5q0 -15 -9 -25.5t-24 -10.5t-24.5 10.5t-9.5 25.5q0 13 10 24t24 11
q15 0 24 -10.5z" />
    <glyph glyph-name="uniFB33" unicode="&#xfb33;" horiz-adv-x="542" 
d="M263 346q0 38 7.5 68.5t20.5 48.5h-256v108h469v-108h-78q-19 -43 -19 -117v-346h-144v346zM168 321.5q9 -10.5 9 -24.5q0 -15 -9 -25.5t-24 -10.5t-24.5 10.5t-9.5 25.5q0 13 10 24t24 11q15 0 24 -10.5z" />
    <glyph glyph-name="uniFB34" unicode="&#xfb34;" horiz-adv-x="573" 
d="M382 390q0 73 -67 73h-261v108h300q80 0 126.5 -45.5t46.5 -142.5v-383h-145v390zM48 273l20 67h125v-340h-145v273zM308 321.5q9 -10.5 9 -24.5q0 -15 -9 -25.5t-24 -10.5t-24.5 10.5t-9.5 25.5q0 13 10 24t24 11q15 0 24 -10.5z" />
    <glyph glyph-name="uniFB35" unicode="&#xfb35;" horiz-adv-x="259" 
d="M61 454l-12 117h144l12 -117v-454h-144v454zM16 321.5q9 -10.5 9 -24.5q0 -15 -9 -25.5t-24 -10.5t-24.5 10.5t-9.5 25.5q0 13 10 24t24 11q15 0 24 -10.5z" />
    <glyph glyph-name="uniFB36" unicode="&#xfb36;" horiz-adv-x="375" 
d="M101 346q0 38 7.5 68.5t20.5 48.5h-90v108h297v-108h-75q-11 -22 -13.5 -50t-2.5 -67v-346h-144v346zM54 321.5q9 -10.5 9 -24.5q0 -15 -9 -25.5t-24 -10.5t-24.5 10.5t-9.5 25.5q0 13 10 24t24 11q15 0 24 -10.5z" />
    <glyph glyph-name="uniFB38" unicode="&#xfb38;" horiz-adv-x="591" 
d="M40 571h145l49 -453q104 10 148 61.5t42 146.5v31q0 45 -24.5 76.5t-73.5 34.5l-49 3l11 111l61 -3q93 -5 152.5 -57.5t62.5 -149.5l1 -28q6 -176 -113.5 -260.5t-344.5 -93.5zM336 336.5q9 -10.5 9 -24.5q0 -15 -9 -25.5t-24 -10.5t-24.5 10.5t-9.5 25.5q0 13 10 24
t24 11q15 0 24 -10.5z" />
    <glyph glyph-name="uniFB39" unicode="&#xfb39;" horiz-adv-x="259" 
d="M61 454l-12 117h144l12 -117v-156l-1 -63l-143 -25v244zM16 417.5q9 -10.5 9 -24.5q0 -15 -9 -25.5t-24 -10.5t-24.5 10.5t-9.5 25.5q0 13 10 24t24 11q15 0 24 -10.5z" />
    <glyph glyph-name="uniFB3A" unicode="&#xfb3a;" horiz-adv-x="512" 
d="M314 390q0 73 -68 73h-207v108h247q80 0 126 -45.5t46 -142.5v-583h-144v590zM186 321.5q9 -10.5 9 -24.5q0 -15 -9 -25.5t-24 -10.5t-24.5 10.5t-9.5 25.5q0 13 10 24t24 11q15 0 24 -10.5z" />
    <glyph glyph-name="uniFB3B" unicode="&#xfb3b;" horiz-adv-x="485" 
d="M29 108h160q58 0 85.5 38t27.5 102v75q0 64 -27.5 102t-85.5 38h-160v108h199q107 0 163 -68.5t56 -187.5v-59q0 -119 -56 -187.5t-163 -68.5h-199v108zM180 319.5q9 -10.5 9 -24.5q0 -15 -9 -25.5t-24 -10.5t-24.5 10.5t-9.5 25.5q0 13 10 24t24 11q15 0 24 -10.5z" />
    <glyph glyph-name="uniFB3C" unicode="&#xfb3c;" horiz-adv-x="498" 
d="M466 571v-119l-180 -452h-144l179 463h-290v254h130v-146h305zM147 271.5q-9 -10.5 -24 -10.5t-24.5 10.5t-9.5 25.5q0 13 10 24t24 11q15 0 24 -10.5t9 -24.5q0 -15 -9 -25.5z" />
    <glyph glyph-name="uniFB3E" unicode="&#xfb3e;" horiz-adv-x="642" 
d="M538.5 66.5q-64.5 -79.5 -181.5 -79.5q-42 0 -92 12l13 108q37 -8 62 -8q68 0 97 45.5t29 134.5q0 99 -27.5 143.5t-84.5 44.5q-40 0 -67.5 -24t-34.5 -65l-62 -378h-144l69 385l-80 186h150l40 -114q21 62 63 92.5t96 30.5q107 0 163 -73.5t56 -221.5
q0 -139 -64.5 -218.5zM369 321.5q9 -10.5 9 -24.5q0 -15 -9 -25.5t-24 -10.5t-24.5 10.5t-9.5 25.5q0 13 10 24t24 11q15 0 24 -10.5z" />
    <glyph glyph-name="uniFB40" unicode="&#xfb40;" horiz-adv-x="381" 
d="M39 108h146v289q0 36 -13.5 51t-41.5 19l-70 10l18 106l125 -16q61 -8 93.5 -52t32.5 -114v-401h-290v108zM115 321.5q9 -10.5 9 -24.5q0 -15 -9 -25.5t-24 -10.5t-24.5 10.5t-9.5 25.5q0 13 10 24t24 11q15 0 24 -10.5z" />
    <glyph glyph-name="uniFB41" unicode="&#xfb41;" horiz-adv-x="605" 
d="M447 75.5q-116 -78.5 -338 -85.5l-55 473l-14 108h307q98 0 152 -55.5t57 -152.5l1 -33q6 -176 -110 -254.5zM345.5 147.5q39.5 24.5 55 69t13.5 116.5v30q0 46 -21 73t-57 27h-138l37 -345q71 5 110.5 29.5zM332 329.5q9 -10.5 9 -24.5q0 -15 -9 -25.5t-24 -10.5
t-24.5 10.5t-9.5 25.5q0 13 10 24t24 11q15 0 24 -10.5z" />
    <glyph glyph-name="uniFB43" unicode="&#xfb43;" horiz-adv-x="564" 
d="M457 503q53 -68 53 -187v-516h-144v523q0 64 -25 102t-79 38h-76l-12 -67q-2 -22 -2 -32q0 -30 10.5 -47.5t37.5 -20.5l-26 -87q-157 4 -157 135q0 22 7 59l37 168h220q103 0 156 -68zM311 321.5q9 -10.5 9 -24.5q0 -15 -9 -25.5t-24 -10.5t-24.5 10.5t-9.5 25.5
q0 13 10 24t24 11q15 0 24 -10.5z" />
    <glyph glyph-name="uniFB44" unicode="&#xfb44;" horiz-adv-x="557" 
d="M53 108h202q58 0 90.5 37.5t32.5 103.5v74q0 63 -28.5 101.5t-83.5 38.5h-72l-18 -85q-3 -13 -3 -25q0 -25 15 -38.5t49 -20.5l-23 -90q-89 2 -129 40t-40 103q0 24 4 44l40 180h211q104 0 163 -69t59 -186v-60q0 -120 -63 -188t-170 -68h-236v108zM319 314.5
q9 -10.5 9 -24.5q0 -15 -9 -25.5t-24 -10.5t-24.5 10.5t-9.5 25.5q0 13 10 24t24 11q15 0 24 -10.5z" />
    <glyph glyph-name="uniFB46" unicode="&#xfb46;" horiz-adv-x="559" 
d="M376 234l132 -234h-145h-333v108h272l-261 463h145l113 -201l82 201h142zM156 239.5q9 -10.5 9 -24.5q0 -15 -9 -25.5t-24 -10.5t-24.5 10.5t-9.5 25.5q0 13 10 24t24 11q15 0 24 -10.5z" />
    <glyph glyph-name="uniFB47" unicode="&#xfb47;" horiz-adv-x="590" 
d="M245 107q68 6 101 46t40 136l13 174h-348v108h503l-5 -93l-11 -151q-16 -325 -282 -328zM43 279l20 69h125v-548h-145v479zM311 336.5q9 -10.5 9 -24.5q0 -15 -9 -25.5t-24 -10.5t-24.5 10.5t-9.5 25.5q0 13 10 24t24 11q15 0 24 -10.5z" />
    <glyph glyph-name="uniFB48" unicode="&#xfb48;" horiz-adv-x="488" 
d="M290 390q0 73 -67 73h-195v108h234q80 0 126.5 -45.5t46.5 -142.5v-383h-145v390zM177 321.5q9 -10.5 9 -24.5q0 -15 -9 -25.5t-24 -10.5t-24.5 10.5t-9.5 25.5q0 13 10 24t24 11q15 0 24 -10.5z" />
    <glyph glyph-name="uniFB49" unicode="&#xfb49;" horiz-adv-x="678" 
d="M521 94.5q-121 -104.5 -375 -104.5h-31l-75 581h137l29 -247q40 20 54 60t13 120v66h137v-63q-2 -110 -44 -178.5t-148 -104.5l14 -115q143 9 204 82.5t60 204.5l-2 175h145l1 -167q2 -205 -119 -309.5zM401 276.5q9 -10.5 9 -24.5q0 -15 -9 -25.5t-24 -10.5t-24.5 10.5
t-9.5 25.5q0 13 10 24t24 11q15 0 24 -10.5z" />
    <glyph glyph-name="uniFB4A" unicode="&#xfb4a;" horiz-adv-x="635" 
d="M18 81q38 4 57 15t26 30.5t6 55.5v389h303q80 0 126 -45.5t46 -142.5v-383h-144v390q0 73 -68 73h-118v-262q0 -76 -23.5 -121t-71 -67.5t-127.5 -29.5zM367 321.5q9 -10.5 9 -24.5q0 -15 -9 -25.5t-24 -10.5t-24.5 10.5t-9.5 25.5q0 13 10 24t24 11q15 0 24 -10.5z" />
    <glyph glyph-name="uniFB4B" unicode="&#xfb4b;" horiz-adv-x="259" 
d="M61 454l-12 117h144l12 -117v-454h-144v454zM134 697.5q9 -10.5 9 -24.5q0 -15 -9 -25.5t-24 -10.5t-24.5 10.5t-9.5 25.5q0 14 9.5 24.5t24.5 10.5t24 -10.5z" />
    <glyph glyph-name="a.sups" horiz-adv-x="357" 
d="M58.5 399.5q-27.5 28.5 -27.5 70.5q0 53 45 81.5t143 37.5q-2 24 -14 36.5t-37 12.5q-37 0 -92 -31l-34 64q74 44 143 44q64 0 97.5 -37t33.5 -109v-190h-77l-9 34h-4q-44 -42 -95 -42q-45 0 -72.5 28.5zM219 473v60q-95 -11 -95 -55q0 -33 39 -33q28 0 56 28z" />
    <glyph glyph-name="e.sups" horiz-adv-x="345" 
d="M72.5 417.5q-47.5 46.5 -47.5 125.5q0 51 21.5 90t57.5 60.5t78 21.5q70 0 105 -45.5t35 -111.5q0 -22 -5 -40h-199q5 -37 28 -55t59 -18q41 0 73 21l34 -58q-26 -18 -57.5 -27.5t-62.5 -9.5q-72 0 -119.5 46.5zM240 574q0 29 -14 48t-44 19q-26 0 -43.5 -17t-22.5 -50
h124z" />
    <glyph glyph-name="eogonek.sups" horiz-adv-x="345" 
d="M72.5 417.5q-47.5 46.5 -47.5 125.5q0 51 21.5 90t57.5 60.5t78 21.5q70 0 105 -45.5t35 -111.5q0 -22 -5 -40h-199q5 -37 28 -55t59 -18q41 0 73 21l34 -58q-26 -18 -57.5 -27.5t-62.5 -9.5q-72 0 -119.5 46.5zM240 574q0 29 -14 48t-44 19q-26 0 -43.5 -17t-22.5 -50
h124z" />
    <glyph glyph-name="j.sups" horiz-adv-x="187" 
d="M54 768q-16 14 -16 37q0 22 16 36t41 14q24 0 40 -14t16 -36t-16 -36.5t-40 -14.5q-25 0 -41 14zM-32 250l17 72q14 -4 27 -4q19 0 26.5 12t7.5 40v337h97v-333q0 -60 -27.5 -96t-89.5 -36q-36 0 -58 8z" />
    <glyph glyph-name="o.sups" horiz-adv-x="372" 
d="M106 391.5q-37 20.5 -59 59.5t-22 91q0 53 22 92t59 60t80 21t79.5 -21t58.5 -60t22 -92q0 -52 -22 -91t-58.5 -59.5t-79.5 -20.5t-80 20.5zM231.5 473q15.5 25 15.5 69q0 45 -15.5 70.5t-45.5 25.5q-31 0 -46.5 -25.5t-15.5 -70.5q0 -44 15.5 -69t46.5 -25q30 0 45.5 25
z" />
    <glyph glyph-name="zero.heb" 
d="M143.5 26.5q-50.5 38.5 -78 113.5t-27.5 181q0 158 60 242.5t164 84.5q103 0 163 -84.5t60 -242.5q0 -106 -27.5 -181t-77.5 -113.5t-118 -38.5t-118.5 38.5zM331 145.5q25 51.5 25 175.5q0 122 -25 171.5t-69 49.5q-45 0 -69.5 -49t-24.5 -172q0 -124 25 -175.5
t69 -51.5t69 51.5z" />
    <glyph glyph-name="one.heb" 
d="M71 111h140v384h-118v85q49 9 85 22t69 34h101v-525h121v-111h-398v111z" />
    <glyph glyph-name="two.heb" 
d="M38 79q104 99 158.5 156t87.5 109t33 96q0 47 -25 73.5t-70 26.5q-32 0 -60 -18t-56 -48l-75 74q48 51 96.5 75.5t113.5 24.5q93 0 150 -54.5t57 -145.5q0 -74 -55 -153.5t-158 -186.5q58 7 107 7h137v-115h-441v79z" />
    <glyph glyph-name="three.heb" 
d="M23 78l63 87q68 -66 143 -66q49 0 78.5 21.5t29.5 60.5q0 48 -38.5 72t-137.5 24v98q84 0 119.5 23.5t35.5 66.5q0 36 -22 55.5t-61 19.5q-34 0 -62.5 -14t-59.5 -43l-69 84q94 81 197 81q98 0 156 -45.5t58 -127.5q0 -98 -107 -142v-4q58 -17 93 -56.5t35 -99.5
q0 -57 -31 -99t-84 -64t-117 -22q-139 0 -219 90z" />
    <glyph glyph-name="four.heb" 
d="M499 156h-76v-156h-127v156h-277v94l239 386h165v-376h76v-104zM296 260v117q0 42 5 139h-4q-10 -21 -43 -86l-9 -18l-94 -152h145z" />
    <glyph glyph-name="five.heb" 
d="M23 77l62 87q69 -65 141 -65q51 0 81.5 28t30.5 79q0 49 -29 77t-76 28q-28 0 -47.5 -7t-49.5 -27l-62 40l18 319h354v-115h-236l-11 -131q39 17 75 17q87 0 144 -50.5t57 -147.5q0 -68 -31.5 -118t-84 -76.5t-114.5 -26.5q-133 0 -222 89z" />
    <glyph glyph-name="six.heb" 
d="M435.5 346.5q51.5 -49.5 51.5 -146.5q0 -64 -28 -112t-75.5 -74t-104.5 -26q-64 0 -118 34t-86.5 104.5t-32.5 175.5q0 115 35 193t93 115.5t127 37.5q57 0 102 -21t78 -54l-72 -82q-18 20 -45.5 33t-54.5 13q-60 0 -97 -50t-41 -162q25 33 62 52t70 19q85 0 136.5 -49.5
zM338 119q24 28 24 81q0 50 -24 74.5t-65 24.5q-28 0 -54.5 -16t-47.5 -51q9 -74 37 -107.5t69 -33.5q37 0 61 28z" />
    <glyph glyph-name="seven.heb" 
d="M208 282.5q37 115.5 126 238.5h-290v115h437v-84q-73 -88 -109.5 -166t-51 -163.5t-20.5 -222.5h-138q9 167 46 282.5z" />
    <glyph glyph-name="eight.heb" 
d="M149 10.5q-50 22.5 -78.5 62t-28.5 90.5q0 99 110 158v4q-86 63 -86 149q0 79 56 126.5t144 47.5q86 0 138.5 -47.5t52.5 -126.5q0 -43 -24 -80t-60 -61v-4q51 -28 80.5 -67.5t29.5 -98.5q0 -49 -28 -89t-78.5 -63t-115.5 -23q-62 0 -112 22.5zM345 465q0 40 -22 63.5
t-60 23.5q-33 0 -54.5 -20.5t-21.5 -57.5q0 -38 28.5 -61.5t86.5 -46.5q43 48 43 99zM330 106q25 22 25 62q0 28 -17 48t-43.5 33.5t-79.5 35.5q-25 -21 -40 -49t-15 -58q0 -42 30 -68t74 -26q41 0 66 22z" />
    <glyph glyph-name="nine.heb" 
d="M361 614q54 -34 86.5 -104.5t32.5 -175.5q0 -115 -35 -193t-93 -115.5t-127 -37.5q-57 0 -102 21t-78 54l72 82q17 -20 44.5 -33t55.5 -13q60 0 97 50t41 162q-25 -33 -62 -52t-70 -19q-85 0 -136.5 49.5t-51.5 146.5q0 64 28 112t75.5 74t104.5 26q64 0 118 -34z
M303.5 353q26.5 16 47.5 51q-9 74 -37 107.5t-69 33.5q-37 0 -61 -28t-24 -81q0 -51 23.5 -75t65.5 -24q28 0 54.5 16z" />
    <glyph glyph-name="zero.lat" 
d="M143.5 26.5q-50.5 38.5 -78 113.5t-27.5 181q0 158 60 242.5t164 84.5q103 0 163 -84.5t60 -242.5q0 -106 -27.5 -181t-77.5 -113.5t-118 -38.5t-118.5 38.5zM331 145.5q25 51.5 25 175.5q0 122 -25 171.5t-69 49.5q-45 0 -69.5 -49t-24.5 -172q0 -124 25 -175.5
t69 -51.5t69 51.5z" />
    <glyph glyph-name="one.lat" 
d="M71 111h140v384h-118v85q49 9 85 22t69 34h101v-525h121v-111h-398v111z" />
    <glyph glyph-name="two.lat" 
d="M38 79q104 99 158.5 156t87.5 109t33 96q0 47 -25 73.5t-70 26.5q-32 0 -60 -18t-56 -48l-75 74q48 51 96.5 75.5t113.5 24.5q93 0 150 -54.5t57 -145.5q0 -74 -55 -153.5t-158 -186.5q58 7 107 7h137v-115h-441v79z" />
    <glyph glyph-name="three.lat" 
d="M23 78l63 87q68 -66 143 -66q49 0 78.5 21.5t29.5 60.5q0 48 -38.5 72t-137.5 24v98q84 0 119.5 23.5t35.5 66.5q0 36 -22 55.5t-61 19.5q-34 0 -62.5 -14t-59.5 -43l-69 84q94 81 197 81q98 0 156 -45.5t58 -127.5q0 -98 -107 -142v-4q58 -17 93 -56.5t35 -99.5
q0 -57 -31 -99t-84 -64t-117 -22q-139 0 -219 90z" />
    <glyph glyph-name="four.lat" 
d="M499 156h-76v-156h-127v156h-277v94l239 386h165v-376h76v-104zM296 260v117q0 42 5 139h-4q-10 -21 -43 -86l-9 -18l-94 -152h145z" />
    <glyph glyph-name="five.lat" 
d="M23 77l62 87q69 -65 141 -65q51 0 81.5 28t30.5 79q0 49 -29 77t-76 28q-28 0 -47.5 -7t-49.5 -27l-62 40l18 319h354v-115h-236l-11 -131q39 17 75 17q87 0 144 -50.5t57 -147.5q0 -68 -31.5 -118t-84 -76.5t-114.5 -26.5q-133 0 -222 89z" />
    <glyph glyph-name="six.lat" 
d="M435.5 346.5q51.5 -49.5 51.5 -146.5q0 -64 -28 -112t-75.5 -74t-104.5 -26q-64 0 -118 34t-86.5 104.5t-32.5 175.5q0 115 35 193t93 115.5t127 37.5q57 0 102 -21t78 -54l-72 -82q-18 20 -45.5 33t-54.5 13q-60 0 -97 -50t-41 -162q25 33 62 52t70 19q85 0 136.5 -49.5
zM338 119q24 28 24 81q0 50 -24 74.5t-65 24.5q-28 0 -54.5 -16t-47.5 -51q9 -74 37 -107.5t69 -33.5q37 0 61 28z" />
    <glyph glyph-name="seven.lat" 
d="M208 282.5q37 115.5 126 238.5h-290v115h437v-84q-73 -88 -109.5 -166t-51 -163.5t-20.5 -222.5h-138q9 167 46 282.5z" />
    <glyph glyph-name="eight.lat" 
d="M149 10.5q-50 22.5 -78.5 62t-28.5 90.5q0 99 110 158v4q-86 63 -86 149q0 79 56 126.5t144 47.5q86 0 138.5 -47.5t52.5 -126.5q0 -43 -24 -80t-60 -61v-4q51 -28 80.5 -67.5t29.5 -98.5q0 -49 -28 -89t-78.5 -63t-115.5 -23q-62 0 -112 22.5zM345 465q0 40 -22 63.5
t-60 23.5q-33 0 -54.5 -20.5t-21.5 -57.5q0 -38 28.5 -61.5t86.5 -46.5q43 48 43 99zM330 106q25 22 25 62q0 28 -17 48t-43.5 33.5t-79.5 35.5q-25 -21 -40 -49t-15 -58q0 -42 30 -68t74 -26q41 0 66 22z" />
    <glyph glyph-name="nine.lat" 
d="M361 614q54 -34 86.5 -104.5t32.5 -175.5q0 -115 -35 -193t-93 -115.5t-127 -37.5q-57 0 -102 21t-78 54l72 82q17 -20 44.5 -33t55.5 -13q60 0 97 50t41 162q-25 -33 -62 -52t-70 -19q-85 0 -136.5 49.5t-51.5 146.5q0 64 28 112t75.5 74t104.5 26q64 0 118 -34z
M303.5 353q26.5 16 47.5 51q-9 74 -37 107.5t-69 33.5q-37 0 -61 -28t-24 -81q0 -51 23.5 -75t65.5 -24q28 0 54.5 16z" />
    <glyph glyph-name="zero.pnumheb" horiz-adv-x="501" 
d="M96 69.5q-56 81.5 -56 225.5t55.5 223.5t155.5 79.5q99 0 154.5 -80t55.5 -223q0 -144 -56 -225.5t-154 -81.5q-99 0 -155 81.5zM313 139q22 46 22 156q0 102 -21 150.5t-63 48.5q-43 0 -64 -48.5t-21 -150.5q0 -111 22.5 -156.5t62.5 -45.5t62 46z" />
    <glyph glyph-name="one.pnumheb" horiz-adv-x="459" 
d="M418 110v-110h-359v110h120v341h-109v83l3 3q43 7 76 19t65 31l2 1h96v-478h106z" />
    <glyph glyph-name="two.pnumheb" horiz-adv-x="488" 
d="M38 76q102 99 155 157t76 98t23 75q0 41 -21 64.5t-61 23.5q-28 0 -52 -15.5t-52 -44.5h-5l-69 68v5q47 49 91.5 71t103.5 22q57 0 101 -23.5t68.5 -66t24.5 -97.5q0 -67 -49 -138.5t-140 -166.5q48 5 89 5h128v-113h-411v76z" />
    <glyph glyph-name="three.pnumheb" horiz-adv-x="501" 
d="M420.5 250.5q30.5 -37.5 30.5 -90.5q0 -51 -27.5 -90t-76.5 -60.5t-112 -21.5q-66 0 -117.5 21.5t-86.5 61.5v4l59 80l5 1q59 -59 128 -59q44 0 69.5 19t25.5 52q0 43 -36.5 63.5t-121.5 20.5l-3 3v90l3 4q138 0 138 78q0 31 -18.5 48t-53.5 17q-30 0 -55.5 -12.5
t-53.5 -38.5h-4l-65 77v5q87 75 184 75q92 0 146 -43t54 -118q0 -90 -97 -133q55 -16 85.5 -53.5z" />
    <glyph glyph-name="four.pnumheb" 
d="M486 141h-68v-141h-125v141h-253v92l218 355h160v-343h68v-104zM293 245v101q0 33 5 123q-18 -38 -28 -57l-17 -35l-82 -132h122z" />
    <glyph glyph-name="five.pnumheb" horiz-adv-x="493" 
d="M31 70v4l58 80l5 1q29 -27 59.5 -42.5t66.5 -15.5q46 0 72.5 24.5t26.5 68.5q0 43 -25 67.5t-68 24.5q-23 0 -41 -6t-48 -24l-59 38l16 297h331v-113h-216l-10 -110q30 13 65 13q85 0 136.5 -48.5t51.5 -134.5q0 -61 -28 -107.5t-77 -72.5t-110 -26q-122 0 -206 82z" />
    <glyph glyph-name="six.pnumheb" horiz-adv-x="493" 
d="M412.5 320q46.5 -48 46.5 -135q0 -57 -25 -101.5t-69.5 -70t-99.5 -25.5q-60 0 -110 31.5t-80.5 96.5t-30.5 162q0 106 32.5 178t86.5 107t118 35q98 0 168 -70v-5l-66 -76h-5q-16 19 -41 30.5t-48 11.5q-54 0 -86 -44.5t-36 -134.5q24 26 56.5 42t59.5 16
q83 0 129.5 -48zM317 115q20 26 20 70t-20.5 65.5t-57.5 21.5q-25 0 -48 -15t-41 -44q8 -60 31.5 -92t61.5 -32q34 0 54 26z" />
    <glyph glyph-name="seven.pnumheb" horiz-adv-x="478" 
d="M141 3q8 151 41.5 256.5t112.5 215.5h-259v113h404v-81q-63 -78 -96 -144.5t-47.5 -147t-21.5 -212.5l-3 -3h-127z" />
    <glyph glyph-name="eight.pnumheb" horiz-adv-x="493" 
d="M145.5 9q-46.5 21 -73 58t-26.5 84q0 90 101 147q-40 30 -59.5 64t-19.5 74q0 73 52 117.5t135 44.5q81 0 129.5 -45t48.5 -117q0 -37 -20 -71.5t-57 -59.5q51 -29 76 -66.5t25 -86.5q0 -47 -26 -84.5t-73 -58.5t-107 -21q-59 0 -105.5 21zM324 428q0 34 -19.5 54.5
t-52.5 20.5q-30 0 -47.5 -18t-17.5 -49q0 -32 23.5 -52.5t75.5 -41.5q38 42 38 86zM312 102.5q21 19.5 21 52.5q0 25 -15 42.5t-38.5 29.5t-70.5 31q-22 -20 -34 -44t-12 -49q0 -37 25 -59.5t66 -22.5q37 0 58 19.5z" />
    <glyph glyph-name="nine.pnumheb" horiz-adv-x="493" 
d="M341 566.5q50 -31.5 80.5 -96.5t30.5 -162q0 -106 -32.5 -178t-86.5 -107t-118 -35q-50 0 -93 18t-75 52v5l66 75h5q17 -18 41 -29.5t48 -11.5q54 0 85.5 43.5t35.5 134.5q-24 -27 -56 -42t-59 -15q-83 0 -129.5 48t-46.5 135q0 57 25 102t69 70t100 25q60 0 110 -31.5z
M284 328.5q23 14.5 41 43.5q-16 124 -92 124q-34 0 -54 -25.5t-20 -69.5t20.5 -65.5t57.5 -21.5q24 0 47 14.5z" />
    <glyph glyph-name="one.supsheb" horiz-adv-x="330" 
d="M151 688h-88v62q38 6 60.5 15t49.5 28h80v-390h-102v285z" />
    <glyph glyph-name="two.supsheb" horiz-adv-x="390" 
d="M60 457q91 76 132.5 121t41.5 79q0 30 -16 47.5t-44 17.5q-36 0 -73 -49l-58 52q60 80 146 80q65 0 103.5 -35t38.5 -96q0 -44 -26.5 -84t-83.5 -103h125v-84h-286v54z" />
    <glyph glyph-name="three.supsheb" horiz-adv-x="374" 
d="M94.5 411.5q-40.5 20.5 -65.5 57.5l61 48q36 -49 85 -49q26 0 43 13.5t17 36.5q0 54 -97 54v59q39 0 61 13.5t22 38.5q0 21 -14.5 33t-37.5 12q-33 0 -67 -41l-57 51q32 35 64.5 51t76.5 16q55 0 94.5 -29.5t39.5 -78.5q0 -59 -59 -91q33 -13 53 -37t20 -58
q0 -53 -43.5 -86.5t-105.5 -33.5q-50 0 -90.5 20.5z" />
    <glyph glyph-name="fraction.lat" horiz-adv-x="95" 
d="M184 665h80l-354 -677h-80z" />
    <glyph glyph-name="one.sups" horiz-adv-x="320" 
d="M146 688h-88v62q37 6 60.5 15.5t48.5 27.5h80v-390h-101v285z" />
    <glyph glyph-name="two.sups" horiz-adv-x="386" 
d="M60 457q91 76 132.5 121t41.5 79q0 30 -16 47.5t-44 17.5q-36 0 -73 -49l-58 52q60 80 146 80q65 0 103.5 -35t38.5 -96q0 -44 -26.5 -84t-83.5 -103h125v-84h-286v54z" />
    <glyph glyph-name="three.sups" horiz-adv-x="383" 
d="M102.5 411.5q-40.5 20.5 -65.5 57.5l61 48q36 -49 85 -49q26 0 43 13.5t17 36.5q0 54 -97 54v59q39 0 61 13.5t22 38.5q0 21 -14.5 33t-37.5 12q-33 0 -67 -41l-57 51q32 35 64.5 51t76.5 16q55 0 94.5 -29.5t39.5 -78.5q0 -59 -59 -91q33 -13 53 -37t20 -58
q0 -53 -43.5 -86.5t-105.5 -33.5q-50 0 -90.5 20.5z" />
    <glyph glyph-name="asterisk.lat" horiz-adv-x="451" 
d="M89 403l58 101l-106 48l22 68l114 -24l12 116h73l12 -117l113 25l23 -68l-107 -48l59 -101l-58 -43l-78 89l-79 -89z" />
    <glyph glyph-name="backslash.lat" horiz-adv-x="341" 
d="M26 710h90l212 -870h-90z" />
    <glyph glyph-name="periodcentered.lat" horiz-adv-x="292" 
d="M86 258q-24 25 -24 63t24 63t60 25t60 -25t24 -63t-24 -63t-60 -25t-60 25z" />
    <glyph glyph-name="bullet.lat" horiz-adv-x="338" 
d="M77.5 166q-37.5 39 -37.5 97t37.5 97t91.5 39t91.5 -39t37.5 -97t-37.5 -97t-91.5 -39t-91.5 39z" />
    <glyph glyph-name="exclam.lat" horiz-adv-x="332" 
d="M102 544l-4 126h137l-5 -126l-19 -318h-90zM106 13q-24 25 -24 63t24 63t60 25t60 -25t24 -63t-24 -63t-60 -25t-60 25z" />
    <glyph glyph-name="exclamdown.lat" horiz-adv-x="332" 
d="M106 356q-24 25 -24 63t24 63t60 25t60 -25t24 -63t-24 -63t-60 -25t-60 25zM102 -49l19 318h90l19 -318l5 -127h-137z" />
    <glyph glyph-name="numbersign.lat" 
d="M110 190h-75v88h85l14 116h-79v88h90l22 168h79l-20 -168h108l21 168h79l-20 -168h79v-88h-90l-14 -116h84v-88h-94l-23 -190h-81l23 190h-108l-23 -190h-80zM308 278l15 116h-108l-15 -116h108z" />
    <glyph glyph-name="question.lat" horiz-adv-x="457" 
d="M153 252q0 45 20 79.5t57 76.5q28 32 40.5 52.5t12.5 42.5q0 32 -19.5 50.5t-52.5 18.5q-27 0 -49.5 -12.5t-45.5 -35.5l-75 69q36 41 84 65t103 24q84 0 135 -43t51 -126q0 -40 -18 -70.5t-54 -71.5q-34 -38 -51 -66t-17 -64q0 -10 1 -15h-120q-2 18 -2 26zM155 13
q-24 25 -24 63t24 63t60 25t60 -25t24 -63t-24 -63t-60 -25t-60 25z" />
    <glyph glyph-name="questiondown.lat" horiz-adv-x="457" 
d="M182 356q-24 25 -24 63t24 63t60 25t60 -25t24 -63t-24 -63t-60 -25t-60 25zM94.5 -144.5q-51.5 43.5 -51.5 126.5q0 41 18.5 71.5t54.5 70.5q34 40 51 67.5t17 63.5l-1 14h119q2 -18 2 -27q0 -45 -19.5 -79t-56.5 -76q-28 -32 -41 -52.5t-13 -43.5q0 -32 19.5 -50
t52.5 -18q27 0 49.5 12.5t45.5 35.5l76 -69q-37 -42 -85 -66t-103 -24q-83 0 -134.5 43.5z" />
    <glyph glyph-name="quotedbl.lat" horiz-adv-x="519" 
d="M113 561l-4 126h138l-4 -126l-27 -194h-76zM276 561l-4 126h138l-4 -126l-27 -194h-76z" />
    <glyph glyph-name="quotesingle.lat" horiz-adv-x="292" 
d="M81 561l-4 126h138l-4 -126l-27 -194h-76z" />
    <glyph glyph-name="slash.lat" horiz-adv-x="341" 
d="M225 710h90l-212 -870h-90z" />
    <glyph glyph-name="braceleft.lat" horiz-adv-x="338" 
d="M137.5 -121q-29.5 31 -29.5 110q0 28 2 55.5t3 36.5q5 43 5 82q0 31 -20.5 52.5t-65.5 22.5v81q45 1 65.5 22t20.5 52q0 39 -5 82q-1 9 -3 36.5t-2 55.5q0 79 29.5 110t96.5 31h60v-73h-20q-33 0 -44.5 -15t-11.5 -58q0 -26 2 -78q3 -42 3 -88q0 -54 -17 -80.5t-55 -35.5
v-4q38 -9 55 -35.5t17 -79.5q0 -47 -3 -89q-2 -52 -2 -78q0 -43 11.5 -58t44.5 -15h20v-73h-60q-67 0 -96.5 31z" />
    <glyph glyph-name="braceright.lat" horiz-adv-x="338" 
d="M44 -79h20q32 0 44 15t12 58q0 26 -2 78q-3 42 -3 89q0 53 17 79.5t55 35.5v4q-38 9 -55 35.5t-17 80.5q0 46 3 88q2 52 2 78q0 43 -12 58t-44 15h-20v73h60q67 0 96.5 -31t29.5 -110q0 -28 -2 -55.5t-3 -36.5q-5 -43 -5 -82q0 -31 20.5 -52t65.5 -22v-81
q-45 -1 -65.5 -22.5t-20.5 -52.5q0 -39 5 -82q1 -9 3 -36.5t2 -55.5q0 -79 -29.5 -110t-96.5 -31h-60v73z" />
    <glyph glyph-name="bracketleft.lat" horiz-adv-x="338" 
d="M88 708h206v-73h-104v-714h104v-73h-206v860z" />
    <glyph glyph-name="bracketright.lat" horiz-adv-x="338" 
d="M44 -79h104v714h-104v73h206v-860h-206v73z" />
    <glyph glyph-name="parenleft.lat" horiz-adv-x="338" 
d="M107.5 39q-33.5 111 -33.5 239t33.5 239t98.5 218l85 -36q-54 -94 -80.5 -202t-26.5 -219t26.5 -219t80.5 -202l-85 -36q-65 107 -98.5 218z" />
    <glyph glyph-name="parenright.lat" horiz-adv-x="338" 
d="M47 -143q54 94 80.5 202t26.5 219t-26.5 219t-80.5 202l85 36q65 -107 98.5 -218t33.5 -239t-33.5 -239t-98.5 -218z" />
    <glyph glyph-name="emdash.lat" horiz-adv-x="800" 
d="M43 297h714v-88h-714v88z" />
    <glyph glyph-name="endash.lat" horiz-adv-x="480" 
d="M43 297h394v-88h-394v88z" />
    <glyph glyph-name="uni2010.lat" horiz-adv-x="329" 
d="M43 302h243v-98h-243v98z" />
    <glyph glyph-name="guillemotleft.lat" horiz-adv-x="472" 
d="M48 204v97l135 146l52 -42l-112 -153l112 -153l-52 -41zM232 204v97l135 146l51 -42l-112 -153l112 -153l-51 -41z" />
    <glyph glyph-name="guillemotright.lat" horiz-adv-x="472" 
d="M54 99l112 153l-112 153l52 42l135 -146v-97l-135 -146zM238 99l112 153l-112 153l51 42l135 -146v-97l-135 -146z" />
    <glyph glyph-name="guilsinglleft.lat" horiz-adv-x="289" 
d="M48 204v97l135 146l52 -42l-112 -153l112 -153l-52 -41z" />
    <glyph glyph-name="guilsinglright.lat" horiz-adv-x="289" 
d="M54 99l112 153l-112 153l52 42l135 -146v-97l-135 -146z" />
    <glyph glyph-name="quotedblbase.lat" horiz-adv-x="519" 
d="M214 135q23 -32 23 -92q0 -139 -136 -208l-31 60q45 23 66.5 53t21.5 73q-3 -1 -10 -1q-31 0 -52 19.5t-21 50.5q0 35 20.5 56t52.5 21q43 0 66 -32zM441 135q23 -32 23 -92q0 -139 -136 -208l-31 60q45 23 66.5 53t21.5 73q-3 -1 -10 -1q-31 0 -52 19.5t-21 50.5
q0 35 20.5 56t52.5 21q43 0 66 -32z" />
    <glyph glyph-name="quotedblleft.lat" horiz-adv-x="519" 
d="M228 481q21 -19 21 -50q0 -36 -20 -57t-53 -21q-43 0 -66 32.5t-23 91.5q0 140 137 208l31 -60q-45 -23 -66.5 -53t-21.5 -73q3 1 9 1q31 0 52 -19zM391 481q21 -19 21 -50q0 -36 -20 -57t-53 -21q-43 0 -66 32.5t-23 91.5q0 140 137 208l31 -60q-45 -23 -66.5 -53
t-21.5 -73q3 1 9 1q31 0 52 -19z" />
    <glyph glyph-name="quotedblright.lat" horiz-adv-x="519" 
d="M246 665q23 -32 23 -92q0 -139 -136 -208l-31 60q45 23 66.5 53t21.5 73q-3 -1 -10 -1q-31 0 -52 19.5t-21 50.5q0 35 20.5 56t52.5 21q43 0 66 -32zM409 665q23 -32 23 -92q0 -139 -136 -208l-31 60q45 23 66.5 53t21.5 73q-3 -1 -10 -1q-31 0 -52 19.5t-21 50.5
q0 35 20.5 56t52.5 21q43 0 66 -32z" />
    <glyph glyph-name="quoteleft.lat" horiz-adv-x="292" 
d="M196 481q21 -19 21 -50q0 -36 -20 -57t-53 -21q-43 0 -66 32.5t-23 91.5q0 140 137 208l31 -60q-45 -23 -66.5 -53t-21.5 -73q3 1 9 1q31 0 52 -19z" />
    <glyph glyph-name="quoteright.lat" horiz-adv-x="292" 
d="M214 665q23 -32 23 -92q0 -139 -136 -208l-31 60q45 23 66.5 53t21.5 73q-3 -1 -10 -1q-31 0 -52 19.5t-21 50.5q0 35 20.5 56t52.5 21q43 0 66 -32z" />
    <glyph glyph-name="quotesinglbase.lat" horiz-adv-x="292" 
d="M214 135q23 -32 23 -92q0 -139 -136 -208l-31 60q45 23 66.5 53t21.5 73q-3 -1 -10 -1q-31 0 -52 19.5t-21 50.5q0 35 20.5 56t52.5 21q43 0 66 -32z" />
    <glyph glyph-name="Euro.001" 
d="M515 81q-74 -93 -181 -93q-95 0 -162 60t-88 171h-63v64l56 5q-1 9 -1 27t1 27h-56v64l64 5q22 112 91.5 174.5t169.5 62.5q45 0 87 -20.5t73 -57.5l-76 -74q-43 46 -89 46t-76.5 -33.5t-43.5 -96.5h221v-70h-229v-23q0 -20 1 -30h188v-70h-179q13 -60 43.5 -92.5
t75.5 -32.5q29 0 52.5 14.5t44.5 42.5z" />
    <glyph glyph-name="Euro.lat.001" 
d="M515 81q-74 -93 -181 -93q-95 0 -162 60t-88 171h-63v64l56 5q-1 9 -1 27t1 27h-56v64l64 5q22 112 91.5 174.5t169.5 62.5q45 0 87 -20.5t73 -57.5l-76 -74q-43 46 -89 46t-76.5 -33.5t-43.5 -96.5h221v-70h-229v-23q0 -20 1 -30h188v-70h-179q13 -60 43.5 -92.5
t75.5 -32.5q29 0 52.5 14.5t44.5 42.5z" />
    <glyph glyph-name="cent.lat" 
d="M419 76.5q-35 -15.5 -70 -20.5v-96h-76v97q-98 13 -155 78.5t-57 172.5q0 102 58.5 167t153.5 81v99h76v-95q76 -6 126 -56l-63 -84q-32 27 -63 30v-284q38 5 78 37l55 -86q-28 -25 -63 -40.5zM213.5 224.5q20.5 -34.5 59.5 -49.5v265q-39 -15 -59.5 -49t-20.5 -83
t20.5 -83.5z" />
    <glyph glyph-name="dollar.lat" 
d="M422.5 59.5q-40.5 -50.5 -114.5 -65.5v-104h-92v100q-47 6 -94 25.5t-81 50.5l60 93q39 -30 74 -45t71 -15q86 0 86 74q0 33 -26.5 54.5t-82.5 50.5q-50 26 -81.5 47t-53.5 55t-22 81q0 72 40 120t110 62v103h92v-101q83 -12 147 -81l-69 -78q-29 26 -54.5 38.5
t-56.5 12.5q-78 0 -78 -69q0 -30 25 -49t77 -44q51 -25 84 -46.5t56.5 -57.5t23.5 -88q0 -73 -40.5 -123.5z" />
    <glyph glyph-name="Euro.lat" 
d="M515 81q-74 -93 -181 -93q-95 0 -162 60t-88 171h-63v64l56 5q-1 9 -1 27t1 27h-56v64l64 5q22 112 91.5 174.5t169.5 62.5q45 0 87 -20.5t73 -57.5l-76 -74q-43 46 -89 46t-76.5 -33.5t-43.5 -96.5h221v-70h-229v-23q0 -20 1 -30h188v-70h-179q13 -60 43.5 -92.5
t75.5 -32.5q29 0 52.5 14.5t44.5 42.5z" />
    <glyph glyph-name="florin.lat" 
d="M339 469l-7 -56h107v-100h-119l-23 -196q-12 -102 -52.5 -158t-132.5 -56q-60 2 -84 16l19 101q18 -7 45 -9q26 1 41 14t24 43t16 87l18 158h-77v95l73 5h15l5 45q12 110 57.5 158.5t139.5 48.5q19 0 44 -5.5t41 -12.5l-26 -103q-29 12 -48 12q-66 0 -76 -87z" />
    <glyph glyph-name="sterling.lat" 
d="M228 115h262v-115h-441v84q48 23 77 64.5t29 93.5q0 16 -3 32h-99v80l67 5h9q-18 54 -18 87q0 61 26.5 107t74 70.5t108.5 24.5q54 0 95 -20.5t75 -60.5l-75 -74q-36 44 -82 44q-43 0 -67 -25t-24 -73q0 -30 13 -80h150v-85h-132q2 -22 2 -33q0 -38 -11 -66t-36 -56v-4z
" />
    <glyph glyph-name="yen.lat" 
d="M193 149h-154v67h154v56h-154v67h124l-149 297h141l55 -139q24 -66 51 -132h4q18 44 52 132l55 139h137l-149 -297h125v-67h-155v-56h155v-67h-155v-149h-137v149z" />
    <glyph glyph-name="uni2215.lat" horiz-adv-x="95" 
d="M184 665h80l-354 -677h-80z" />
    <glyph glyph-name="percent.lat" horiz-adv-x="852" 
d="M71.5 321.5q-44.5 55.5 -44.5 152.5q0 96 44.5 151t116.5 55q71 0 115.5 -55t44.5 -151t-44.5 -152t-115.5 -56q-72 0 -116.5 55.5zM559 665h80l-354 -677h-80zM234.5 374.5q17.5 31.5 17.5 99.5q0 67 -17.5 98t-46.5 31t-47 -31t-18 -98t18 -99t47 -32t46.5 31.5z
M541.5 44q-44.5 56 -44.5 152t44.5 151t115.5 55q72 0 116.5 -55t44.5 -151q0 -97 -44.5 -152.5t-116.5 -55.5q-71 0 -115.5 56zM704 97q18 32 18 99t-18 98t-47 31t-46.5 -31t-17.5 -98t17.5 -99t46.5 -32t47 32z" />
    <glyph glyph-name="perthousand.lat" horiz-adv-x="1240" 
d="M86.5 316.5q-44.5 55.5 -44.5 152.5q0 96 44.5 151t116.5 55q71 0 115.5 -55t44.5 -151t-44.5 -152t-115.5 -56q-72 0 -116.5 55.5zM560 665h80l-354 -677h-80zM249.5 370q17.5 32 17.5 99t-17.5 98t-46.5 31t-47 -31t-18 -98t18 -99t47 -32t46.5 32zM540.5 44
q-44.5 56 -44.5 152t44.5 151t115.5 55q72 0 116.5 -55t44.5 -151q0 -97 -44.5 -152.5t-116.5 -55.5q-71 0 -115.5 56zM914.5 44q-44.5 56 -44.5 152t44.5 151t115.5 55q72 0 116.5 -55t44.5 -151q0 -97 -44.5 -152.5t-116.5 -55.5q-71 0 -115.5 56zM703 97q18 32 18 99
t-18 98t-47 31t-46.5 -31t-17.5 -98t17.5 -99t46.5 -32t47 32zM1077 97q18 32 18 99t-18 98t-47 31t-46.5 -31t-17.5 -98t17.5 -99t46.5 -32t47 32z" />
    <glyph glyph-name="uni0327.cap.001" horiz-adv-x="0" 
 />
    <glyph glyph-name="uni0327.cap.002" horiz-adv-x="0" 
 />
    <glyph glyph-name="uni0327.cap.003" horiz-adv-x="0" 
 />
    <glyph glyph-name="uni0327.cap.004" horiz-adv-x="0" 
 />
    <glyph glyph-name="uni0327.cap.005" horiz-adv-x="0" 
 />
    <glyph glyph-name="uni0308.cap" horiz-adv-x="0" 
d="M-157.5 721.5q-18.5 18.5 -18.5 47.5t18.5 48t47.5 19t48 -19t19 -48t-19 -47.5t-48 -18.5t-47.5 18.5zM62 721.5q-19 18.5 -19 47.5t19 48t48 19t47.5 -19t18.5 -48t-18.5 -47.5t-47.5 -18.5t-48 18.5z" />
    <glyph glyph-name="uni0307.cap" horiz-adv-x="0" 
d="M-58 724q-23 21 -23 53t23 52.5t58 20.5t58 -20.5t23 -52.5t-23 -53t-58 -21t-58 21z" />
    <glyph glyph-name="gravecomb.cap" horiz-adv-x="0" 
d="M-167 801l73 89l166 -138l-60 -69z" />
    <glyph glyph-name="acutecomb.cap" horiz-adv-x="0" 
d="M-72 752l166 138l73 -89l-179 -118z" />
    <glyph glyph-name="uni030B.cap" horiz-adv-x="0" 
d="M-130 728l99 159l88 -49l-119 -143zM53 728l100 159l87 -49l-119 -143z" />
    <glyph glyph-name="uni0302.cap" horiz-adv-x="0" 
d="M-166 725l92 111h148l92 -111l-59 -37l-105 85h-4l-105 -85z" />
    <glyph glyph-name="uni030C.cap" horiz-adv-x="0" 
d="M-166 814l59 37l105 -85h4l105 85l59 -37l-92 -111h-148z" />
    <glyph glyph-name="uni0306.cap" horiz-adv-x="0" 
d="M-113 734q-40 35 -48 100l76 13q6 -32 28 -50t57 -18t57 18t28 50l76 -13q-8 -65 -48 -100t-113 -35t-113 35z" />
    <glyph glyph-name="uni030A.cap" horiz-adv-x="0" 
d="M-80.5 724q-30.5 27 -30.5 71t30.5 70.5t80.5 26.5q49 0 80 -26.5t31 -70.5t-31 -71t-80 -27q-50 0 -80.5 27zM31 761.5q12 12.5 12 33.5q0 20 -12.5 32.5t-30.5 12.5t-31 -12.5t-13 -32.5q0 -21 12.5 -33.5t31.5 -12.5t31 12.5z" />
    <glyph glyph-name="tildecomb.cap" horiz-adv-x="0" 
d="M23 705q-21 10 -45 28q-16 12 -26 17t-20 5q-33 0 -38 -52l-89 7q4 70 37 105t86 35q28 0 49.5 -10t44.5 -27q16 -12 26 -17t20 -5q32 0 38 51l89 -6q-4 -70 -37 -105.5t-86 -35.5q-28 0 -49 10z" />
    <glyph glyph-name="uni0304.cap" horiz-adv-x="0" 
d="M-149 812h298v-88h-298v88z" />
    <glyph glyph-name="uni0327.cap" horiz-adv-x="0" 
 />
    <glyph glyph-name="alphalatin" horiz-adv-x="570" 
d="M95.5 57q-54.5 69 -54.5 190q0 78 29.5 137t78 91t101.5 32q38 0 69.5 -14.5t61.5 -46.5h3l11 49h108v-363q0 -33 20 -33q6 0 13 2l-1 -103q-20 -10 -56 -10t-59.5 17.5t-33.5 49.5h-4q-26 -29 -64 -48t-75 -19q-93 0 -147.5 69zM325 111.5q21 11.5 41 36.5v212
q-38 35 -88 35q-41 0 -69 -38t-28 -108q0 -74 25 -111.5t72 -37.5q26 0 47 11.5z" />
    <glyph glyph-name="gammalatin" horiz-adv-x="514" 
d="M341 66q19 -47 27.5 -77.5t8.5 -62.5q0 -59 -32.5 -95.5t-84.5 -36.5q-51 0 -83.5 36.5t-32.5 95.5q0 32 8 63t26 76l-166 430h138l69 -216q3 -10 18 -55q12 -35 21 -65h4q5 16 21 65q9 22 19 55l69 216h131zM263 -118.5q2 15.5 2 36.5q0 52 -6 92q-4 -40 -4 -92
q0 -20 2 -34t3 -18q1 0 3 15.5z" />
    <glyph glyph-name="ismall" horiz-adv-x="387" 
d="M51 108h74v279h-74v108h285v-108h-74v-279h74v-108h-285v108z" />
    <glyph glyph-name="rsmall" horiz-adv-x="526" 
d="M357 0l-93 167h-60v-167h-136v495h199q92 0 146.5 -38t54.5 -123q0 -95 -83 -140l124 -194h-152zM204 260h45q41 0 63 18.5t22 51.5q0 64 -85 64h-45v-134z" />
    <glyph glyph-name="rsmallinverted" horiz-adv-x="526" 
d="M459 495v-495h-200q-92 0 -146.5 38.5t-54.5 123.5q0 49 22.5 84t61.5 56l-124 193h151l93 -166h60v166h137zM322 236h-45q-41 0 -62.5 -19t-21.5 -52q0 -64 84 -64h45v135z" />
    <glyph glyph-name="upsilonlatin" horiz-adv-x="555" 
d="M152 18.5q-54 30.5 -82.5 80t-28.5 104.5q0 57 21.5 103.5t52.5 77.5v3h-84v108h209v-89q-32 -36 -47 -76.5t-15 -97.5q0 -59 25.5 -96t74.5 -37q48 0 73.5 37t25.5 96q0 57 -15 97.5t-47 76.5v89h210v-108h-85v-3q31 -31 52.5 -77.5t21.5 -103.5q0 -55 -28.5 -104.5
t-82 -80t-125.5 -30.5t-126 30.5z" />
    <glyph glyph-name="glottalstopreversedsupmod" horiz-adv-x="336" 
d="M132 552q-53 41 -79 76.5t-26 85.5q0 65 44.5 100.5t111.5 35.5q81 0 136 -60l-48 -60q-15 19 -35 30.5t-42 11.5q-33 0 -51.5 -16t-18.5 -45q0 -33 23 -60t81 -63v-209h-96v173z" />
    <glyph glyph-name="litre" horiz-adv-x="461" 
d="M464 63q-39 -34 -79 -54.5t-86 -20.5q-70 0 -122 39.5t-65 111.5l-49 -30l-51 84q53 32 96 60v223q0 119 49.5 179t131.5 60q71 0 114 -44.5t43 -121.5q0 -92 -49 -167.5t-156 -155.5v-26q0 -50 22 -74t57 -24q26 0 48 12t45 32zM241 355q47 45 70 92t23 101q0 33 -11 50
t-30 17q-22 0 -37 -29.5t-15 -90.5v-140z" />
    <glyph glyph-name="ZWNJ" horiz-adv-x="0" 
d="M-104 792l78 83l-78 82l23 27l81 -84l79 82l24 -25l-79 -82l79 -83l-24 -24l-79 80l-81 -81z" />
    <glyph glyph-name="ZWJ" horiz-adv-x="0" 
d="M-150 894h301v-109h-34v73h-233v-73h-34v109z" />
    <glyph glyph-name="lefttorightembed" horiz-adv-x="0" 
d="M14 792l63 66h-76v36h76l-63 63l25 27l105 -109l-105 -108zM-129 894h88v-36h-88v36z" />
    <glyph glyph-name="righttoleftembed" horiz-adv-x="0" 
d="M-144 875l105 109l25 -26l-63 -64h76v-36h-75l62 -66l-25 -24zM41 894h88v-36h-88v36z" />
    <glyph glyph-name="popdirectionformat" horiz-adv-x="0" 
d="M-19 924l-60 -63l-25 26l104 107l104 -107l-25 -26l-62 64v-160h-36v159z" />
    <glyph glyph-name="circledotted" horiz-adv-x="579" 
d="M361 403q-11 -8 -26 -8q-16 0 -27.5 12t-11.5 31t11.5 30t27.5 11q6 0 8 -1q11 9 25 9q18 0 30 -11.5t12 -30.5q0 -20 -11.5 -31.5t-30.5 -11.5q-5 0 -7 1zM213 469q12 -11 12 -31q0 -19 -11.5 -30.5t-29.5 -11.5q-17 0 -29 11.5t-12 30.5q0 20 11.5 31t29.5 11
q17 0 29 -11zM425 346.5q-12 11.5 -12 30.5t12 30.5t29 11.5q18 0 29.5 -11t11.5 -31q0 -19 -11 -30.5t-30 -11.5q-17 0 -29 11.5zM78 326q-12 12 -12 32q0 19 11.5 30t28.5 11q19 0 30 -10.5t11 -30.5t-11 -32t-30 -12q-16 0 -28 12zM108.5 216.5q-11.5 -11.5 -30.5 -11.5
q-16 0 -28 12t-12 31t11.5 30t28.5 11q18 0 30 -11t12 -30q0 -20 -11.5 -31.5zM530 278q12 -11 12 -30q0 -20 -11.5 -31.5t-29.5 -11.5t-30 11.5t-12 31.5q0 19 12 30t30 11q17 0 29 -11zM135.5 169.5q11.5 -11.5 11.5 -31.5q0 -19 -11 -30.5t-30 -11.5q-16 0 -28 11.5
t-12 30.5q0 20 12 31.5t28 11.5q18 0 29.5 -11.5zM503 169.5q12 -11.5 12 -31.5q0 -19 -11.5 -30.5t-29.5 -11.5q-17 0 -29.5 11.5t-12.5 30.5t12.5 31t29.5 12t29 -11.5zM213 87.5q12 -10.5 12 -29.5q0 -21 -11.5 -32.5t-29.5 -11.5q-17 0 -29 12t-12 32q0 19 12 29.5
t29 10.5t29 -10.5zM424 87.5q12 -10.5 12 -29.5q0 -21 -11 -32.5t-31 -11.5q-17 0 -28.5 12t-11.5 32q0 19 11.5 29.5t28.5 10.5q18 0 30 -10.5zM319.5 60.5q11.5 -10.5 11.5 -29.5q0 -21 -11.5 -32.5t-30.5 -11.5q-16 0 -27.5 12t-11.5 32q0 19 11 29.5t28 10.5
q19 0 30.5 -10.5z" />
    </font>
</defs>
</svg>
